<?xml version="1.0" standalone="no"?>
<!DOCTYPE svg PUBLIC "-//W3C//DTD SVG 1.1//EN" "http://www.w3.org/Graphics/SVG/1.1/DTD/svg11.dtd" >
<svg xmlns="http://www.w3.org/2000/svg" xmlns:xlink="http://www.w3.org/1999/xlink" version="1.1">
<metadata>
Created by FontForge 20170731 at Wed Jan 13 12:26:55 2021
 By Aleksey,,,
Copyright (c) 2011 by Vincenzo Vuono. All rights reserved.
</metadata>
<defs>
<font id="Gravity-Regular" horiz-adv-x="1208" >
  <font-face 
    font-family="Gravity"
    font-weight="400"
    font-stretch="normal"
    units-per-em="2048"
    panose-1="0 0 5 0 0 0 0 0 0 0"
    ascent="1638"
    descent="-410"
    x-height="1087"
    cap-height="1489"
    bbox="-68 -540.452 2183 2001"
    underline-thickness="143"
    underline-position="-593"
    unicode-range="U+0020-F8FF"
  />
<missing-glyph horiz-adv-x="1392" 
d="M211 1489h997q15 0 24 -9t9 -24v-1423q0 -15 -9 -24t-24 -9h-997q-15 0 -24 9t-9 24v1423q0 15 9 24t24 9zM1094 1354h-768v-1219h768v1219zM522 221h-67q-19 0 -26 11t1 28l213 483l-213 484q-8 17 -1 28t26 11h67q28 0 37 -25l152 -344l149 344q9 25 37 25h68
q19 0 25.5 -11t-1.5 -28l-211 -484l211 -483q8 -17 1.5 -28t-25.5 -11h-68q-28 0 -37 25l-149 344l-152 -344q-9 -25 -37 -25z" />
    <glyph glyph-name=".notdef" horiz-adv-x="1392" 
d="M211 1489h997q15 0 24 -9t9 -24v-1423q0 -15 -9 -24t-24 -9h-997q-15 0 -24 9t-9 24v1423q0 15 9 24t24 9zM1094 1354h-768v-1219h768v1219zM522 221h-67q-19 0 -26 11t1 28l213 483l-213 484q-8 17 -1 28t26 11h67q28 0 37 -25l152 -344l149 344q9 25 37 25h68
q19 0 25.5 -11t-1.5 -28l-211 -484l211 -483q8 -17 1.5 -28t-25.5 -11h-68q-28 0 -37 25l-149 344l-152 -344q-9 -25 -37 -25z" />
    <glyph glyph-name=".null" horiz-adv-x="0" 
 />
    <glyph glyph-name="nonmarkingreturn" horiz-adv-x="682" 
 />
    <glyph glyph-name="space" unicode=" " horiz-adv-x="423" 
 />
    <glyph glyph-name="exclam" unicode="!" horiz-adv-x="684" 
d="M436 1466l6 -979q0 -32 -32 -32h-121q-33 0 -33 32l6 979q0 15 9 24t24 9h108q15 0 24 -9t9 -24zM446 190v-157q0 -33 -32 -33h-144q-32 0 -32 33v157q0 33 32 33h144q32 0 32 -33z" />
    <glyph glyph-name="quotedbl" unicode="&#x22;" horiz-adv-x="931" 
d="M444 1481l-69 -441q-3 -30 -35 -30h-78q-34 0 -31 34l58 441q3 31 35 31h92q34 0 28 -35zM780 1481l-71 -441q-3 -30 -35 -30h-76q-34 0 -31 34l56 441q3 31 34 31h95q34 0 28 -35z" />
    <glyph glyph-name="numbersign" unicode="#" horiz-adv-x="1538" 
d="M1112 938l-59 -289h260q17 0 25 -10t3 -25l-14 -77q-6 -29 -37 -29h-266l-98 -479q-6 -29 -37 -29h-86q-17 0 -25 10t-4 27l98 471h-329l-99 -479q-6 -29 -36 -29h-84q-17 0 -25 10t-4 27l98 471h-254q-17 0 -24.5 10t-3.5 27l16 76q6 28 35 28h260l59 289h-254
q-17 0 -25 10t-3 25l14 78q6 28 37 28h262l80 389q6 29 37 29h80q17 0 24.5 -10t3.5 -27l-78 -381h332l82 389q6 29 35 29h82q17 0 25 -10t4 -27l-78 -381h258q17 0 25 -10t3 -25l-14 -77q-6 -29 -37 -29h-264zM963 938h-332l-60 -289h330z" />
    <glyph glyph-name="dollar" unicode="$" horiz-adv-x="1284" 
d="M1190 418q0 -167 -129 -265t-348 -106l6 -237q0 -15 -9 -24t-24 -9h-90q-15 0 -24 9t-9 24l6 243q-103 13 -187.5 49t-139.5 86.5t-89.5 104t-50.5 110.5q-5 15 3.5 25t25.5 10h107q24 0 36 -24q110 -221 414 -221q155 0 239.5 52.5t84.5 149.5q0 92 -83 157t-270 124
l-79 24q-211 64 -315.5 148.5t-108.5 220.5q-4 149 111.5 244.5t301.5 113.5l-6 240q0 15 9 24t24 9h90q15 0 24 -9t9 -24l-6 -240q167 -14 279.5 -100t160.5 -209q6 -17 -1.5 -27t-25.5 -10h-102q-28 0 -39 23q-49 81 -138.5 131.5t-217.5 50.5q-143 0 -220 -52.5
t-77 -141.5q0 -87 77 -138.5t265 -105.5l76 -23q231 -68 335.5 -167.5t104.5 -239.5z" />
    <glyph glyph-name="percent" unicode="%" horiz-adv-x="1607" 
d="M381 1513q119 0 202 -83t83 -201q0 -120 -83 -203.5t-202 -83.5q-120 0 -203.5 83.5t-83.5 203.5q0 119 83.5 201.5t203.5 82.5zM1370 1456l-989 -1436q-14 -20 -39 -20h-98q-21 0 -27.5 12t4.5 27l991 1436q14 20 39 20h97q21 0 27 -12t-5 -27zM381 1378
q-63 0 -107.5 -43t-44.5 -106t44.5 -107.5t107.5 -44.5q62 0 105.5 44.5t43.5 107.5t-43.5 106t-105.5 43zM1219 553q118 0 201 -83t83 -202q0 -120 -82.5 -203t-201.5 -83q-120 0 -203.5 83t-83.5 203q0 119 83.5 202t203.5 83zM1219 418q-63 0 -107.5 -43.5t-44.5 -106.5
t44.5 -107t107.5 -44q62 0 105.5 44t43.5 107t-43.5 106.5t-105.5 43.5z" />
    <glyph glyph-name="ampersand" unicode="&#x26;" horiz-adv-x="1509" 
d="M1362 0h-152q-23 0 -41 18l-77 91q-174 -144 -435 -144q-228 0 -369 106t-141 283q0 134 85.5 238.5t256.5 206.5q-90 106 -132 190t-42 178q0 156 104 257.5t279 101.5q172 0 270.5 -98.5t98.5 -247.5q0 -124 -75.5 -224t-243.5 -206l327 -369q25 77 25 164q0 35 -6 88
q-3 35 30 35h105q31 0 37 -29q8 -49 8 -109q0 -162 -74 -288l180 -201q14 -17 9 -29t-27 -12zM696 1372q-96 0 -153.5 -58t-57.5 -140q0 -66 41 -140t121 -168q127 82 188.5 151.5t61.5 156.5q0 83 -53.5 140.5t-147.5 57.5zM668 125q203 0 315 106l-391 449
q-139 -85 -202.5 -160.5t-63.5 -157.5q0 -106 91.5 -171.5t250.5 -65.5z" />
    <glyph glyph-name="quotesingle" unicode="'" horiz-adv-x="598" 
d="M444 1481l-69 -441q-3 -30 -35 -30h-78q-34 0 -31 34l58 441q3 31 35 31h92q34 0 28 -35z" />
    <glyph glyph-name="parenleft" unicode="(" horiz-adv-x="876" 
d="M653 1513l33 -24q24 -18 6 -45q-284 -371 -284 -916q0 -267 73 -500t211 -415q18 -27 -8 -45l-31 -23q-26 -17 -47 4q-182 174 -287.5 433t-105.5 546q0 288 105.5 547.5t287.5 433.5q21 21 47 4z" />
    <glyph glyph-name="parenright" unicode=")" horiz-adv-x="876" 
d="M223 -455l-30 23q-27 18 -9 45q138 181 211.5 413.5t73.5 501.5t-73.5 502.5t-211.5 413.5q-18 27 6 45l33 24q26 17 47 -4q182 -174 288 -434t106 -547q0 -288 -105.5 -546.5t-288.5 -432.5q-21 -21 -47 -4z" />
    <glyph glyph-name="asterisk" unicode="*" horiz-adv-x="913" 
d="M541 1167l196 -88q32 -16 15 -45l-33 -57q-18 -30 -47 -10l-170 125l18 -211q3 -35 -31 -35h-67q-34 0 -31 35l23 213l-174 -125q-30 -20 -45 10l-33 57q-18 29 14 45l197 86l-199 88q-31 14 -12 45l33 58q18 30 47 10l174 -127l-21 215q-3 35 31 35l66 -2q33 0 30 -35
l-20 -213l174 125q30 20 45 -10l33 -58q14 -29 -15 -45z" />
    <glyph glyph-name="plus" unicode="+" horiz-adv-x="1517" 
d="M1272 586v-86q0 -15 -9 -24t-24 -9h-401v-406q0 -32 -33 -32h-92q-33 0 -33 32v406h-401q-15 0 -24 9t-9 24v86q0 32 33 32h401v404q0 15 9 24t24 9h92q15 0 24 -9t9 -24v-404h401q33 0 33 -32z" />
    <glyph glyph-name="comma" unicode="," horiz-adv-x="692" 
d="M455 182v-127q0 -134 -30.5 -217.5t-100.5 -154.5q-21 -21 -45 -9l-11 7q-30 17 -8 45q36 52 51 100t5 89.5t-48 68.5q-22 19 -22 41v157q0 15 9 24t24 9h143q15 0 24 -9t9 -24z" />
    <glyph glyph-name="hyphen" unicode="-" horiz-adv-x="1206" 
d="M961 625v-93q0 -32 -33 -32h-649q-33 0 -33 32v93q0 32 33 32h649q33 0 33 -32z" />
    <glyph glyph-name="period" unicode="." horiz-adv-x="612" 
d="M408 182v-147q0 -15 -9 -24t-24 -9h-137q-15 0 -24 9t-9 24v147q0 15 9 24t24 9h137q15 0 24 -9t9 -24z" />
    <glyph glyph-name="slash" unicode="/" horiz-adv-x="825" 
d="M760 1460l-508 -1433q-12 -27 -39 -27h-123q-37 0 -24 37l509 1433q12 27 39 27h121q17 0 24 -10t1 -27z" />
    <glyph glyph-name="zero" unicode="0" horiz-adv-x="1253" 
d="M635 1509q241 0 382.5 -198t141.5 -547q0 -359 -147.5 -570.5t-393.5 -211.5q-239 0 -381.5 205t-142.5 556q0 356 147 561t394 205zM621 1350q-165 0 -256 -151.5t-91 -432.5q0 -299 96.5 -462t264.5 -163q164 0 255 156t91 440q0 296 -96.5 454.5t-263.5 158.5z" />
    <glyph glyph-name="one" unicode="1" horiz-adv-x="1052" 
d="M770 0h-129q-15 0 -24 9t-9 24l8 1310h-14l-375 -323q-26 -20 -47 4l-63 72q-23 26 2 45l397 336q20 14 41 14h205q15 0 24 -9t9 -24l8 -1425q0 -15 -9 -24t-24 -9z" />
    <glyph glyph-name="two" unicode="2" horiz-adv-x="1232" 
d="M432 166h674q15 0 24 -9t9 -24v-100q0 -15 -9 -24t-24 -9h-899q-15 0 -24 9t-9 24v82q0 30 21 53l458 489q137 145 203 249t66 200q0 111 -74.5 180.5t-202.5 69.5q-110 0 -192 -55.5t-121 -159.5q-9 -27 -37 -27h-105q-17 0 -24.5 10t-1.5 27q21 74 62 138.5t101 116
t144.5 81t183.5 29.5q103 0 187 -33t138 -89t83 -129t29 -155q0 -67 -21.5 -132.5t-68.5 -138t-96 -133t-130 -151.5l-344 -381v-8z" />
    <glyph glyph-name="three" unicode="3" horiz-adv-x="1206" 
d="M827 793q143 -45 214 -140t71 -227q0 -193 -130.5 -319.5t-365.5 -126.5q-214 0 -352 107t-166 261q-6 35 31 35h117q27 0 37 -29q26 -103 113 -159t212 -56q153 0 241.5 79t88.5 216q0 275 -408 275h-63q-33 0 -33 32v86q0 15 9 24t24 9h63q187 0 277 66t90 180
q0 111 -76 180.5t-205 69.5q-113 0 -195 -55.5t-120 -159.5q-9 -27 -37 -27h-104q-17 0 -25 10t-4 27q21 73 62 137t101.5 116t145.5 82t185 30q104 0 189 -32.5t139.5 -87t84 -125.5t29.5 -149q0 -111 -60.5 -198t-179.5 -131z" />
    <glyph glyph-name="four" unicode="4" horiz-adv-x="1310" 
d="M1217 465v-90q0 -15 -9 -24t-24 -9h-209l2 -309q0 -15 -9 -24t-24 -9h-119q-32 0 -32 33l2 309h-668q-15 0 -24 9t-9 24v86q0 49 19 80l657 919q13 18 23 24.5t28 6.5h115q15 0 24 -9t9 -24l6 -960h209q15 0 24 -9t9 -24zM795 498l4 733h-11l-514 -727v-6h521z" />
    <glyph glyph-name="five" unicode="5" horiz-adv-x="1210" 
d="M1055 1458v-100q0 -15 -9 -24t-24 -9h-633l-41 -448h14q128 73 277 73q218 0 347.5 -138.5t129.5 -350.5q0 -135 -54.5 -242t-169 -173t-274.5 -66q-108 0 -201 30t-158 81.5t-106.5 117.5t-54.5 139q-6 35 31 35h117q29 0 35 -29q28 -101 113.5 -158t217.5 -57
q158 0 244 83t86 239q0 155 -84.5 242.5t-241.5 87.5q-148 0 -268 -84q-22 -15 -41 -13l-106 4q-32 3 -29 35l68 727q3 31 32 31h750q15 0 24 -9t9 -24z" />
    <glyph glyph-name="six" unicode="6" horiz-adv-x="1259" 
d="M666 915q222 0 360.5 -132.5t138.5 -338.5q0 -112 -38.5 -202.5t-106 -148.5t-157 -89t-193.5 -31q-125 0 -226.5 42.5t-177 128.5t-116.5 225.5t-41 322.5q0 383 152.5 604.5t414.5 221.5q177 0 293 -94.5t151 -247.5q5 -15 -3 -25t-25 -10h-103q-28 0 -37 26
q-32 90 -107 140.5t-175 50.5q-168 0 -267 -144.5t-118 -410.5h18q170 112 363 112zM662 135q150 0 242.5 80.5t92.5 220.5q0 136 -91.5 228t-264.5 92q-204 0 -360 -123q17 -498 381 -498z" />
    <glyph glyph-name="seven" unicode="7" horiz-adv-x="1177" 
d="M127 1491h924q32 0 32 -33v-78q0 -27 -20 -63q-324 -595 -576 -1290q-12 -27 -38 -27h-144q-38 0 -26 39q273 693 604 1274v14h-756q-15 0 -24 9t-9 24v98q0 15 9 24t24 9z" />
    <glyph glyph-name="eight" unicode="8" horiz-adv-x="1261" 
d="M631 1526q201 0 326.5 -116.5t125.5 -291.5q0 -114 -52.5 -194t-143.5 -125v-6q121 -44 193.5 -146t72.5 -244q0 -199 -142.5 -318.5t-379.5 -119.5q-234 0 -378 119.5t-144 318.5q0 142 73 242.5t183 147.5v8q-187 96 -187 313q0 179 125 295.5t328 116.5zM631 1372
q-128 0 -205.5 -73.5t-77.5 -188.5q0 -113 76.5 -187.5t206.5 -74.5q129 0 205.5 74.5t76.5 187.5q0 115 -78 188.5t-204 73.5zM631 715q-154 0 -249 -85t-95 -218q0 -130 92 -208.5t252 -78.5t252 78.5t92 208.5q0 133 -95 218t-249 85z" />
    <glyph glyph-name="nine" unicode="9" horiz-adv-x="1286" 
d="M627 1518q90 0 168.5 -23.5t150 -77.5t122 -135.5t80.5 -205t30 -277.5q0 -395 -152.5 -610.5t-419.5 -215.5q-182 0 -303 96t-158 246q-9 35 29 35l109 4q27 0 36 -28q30 -91 109 -141t184 -50q175 0 276 146.5t116 420.5h-21q-166 -112 -362 -112q-214 0 -347 127.5
t-133 329.5q0 207 134 339t352 132zM649 750q197 0 355 118q-5 112 -28 198t-57.5 141t-82 90t-98 49t-109.5 14q-145 0 -232.5 -84.5t-87.5 -235.5q0 -125 87 -207.5t253 -82.5z" />
    <glyph glyph-name="colon" unicode=":" horiz-adv-x="602" 
d="M418 1087v-157q0 -15 -9 -24t-24 -9h-143q-15 0 -24 9t-9 24v157q0 15 9 24t24 9h143q15 0 24 -9t9 -24zM416 215v-158q0 -32 -33 -32h-143q-33 0 -33 32v158q0 15 9 24t24 9h143q15 0 24 -9t9 -24z" />
    <glyph glyph-name="semicolon" unicode=";" horiz-adv-x="628" 
d="M424 1087v-157q0 -15 -9 -24t-24 -9h-145q-15 0 -24 9t-9 24v157q0 15 9 24t24 9h145q15 0 24 -9t9 -24zM424 182v-127q0 -132 -31 -216t-100 -156q-22 -22 -45 -7l-8 5q-33 17 -11 45q36 52 50.5 100t4.5 89.5t-48 68.5q-23 20 -23 41v157q0 15 9 24t24 9h145
q15 0 24 -9t9 -24z" />
    <glyph glyph-name="less" unicode="&#x3c;" horiz-adv-x="1464" 
d="M1219 1001v-90q0 -28 -25 -37l-772 -335l772 -326q25 -9 25 -37v-92q0 -19 -11 -26t-28 1l-910 394q-24 9 -24 36v99q0 28 24 37l910 401q17 8 28 1t11 -26z" />
    <glyph glyph-name="equal" unicode="=" horiz-adv-x="1505" 
d="M1262 797v-86q0 -15 -9 -24t-24 -9h-950q-15 0 -24 9t-9 24v86q0 32 33 32h950q33 0 33 -32zM1262 346v-86q0 -15 -9 -24t-24 -9h-950q-15 0 -24 9t-9 24v86q0 15 9 24t24 9h950q15 0 24 -9t9 -24z" />
    <glyph glyph-name="greater" unicode="&#x3e;" horiz-adv-x="1464" 
d="M285 1026l909 -393q25 -9 25 -37v-98q0 -28 -25 -37l-909 -402q-17 -8 -28 -1t-11 26v92q0 28 24 37l772 334l-772 327q-24 9 -24 37v90q0 19 11 26t28 -1z" />
    <glyph glyph-name="question" unicode="?" horiz-adv-x="1173" 
d="M612 1516q215 0 337 -118.5t122 -299.5q0 -160 -104 -286t-310 -232v-144q0 -33 -32 -33h-127q-15 0 -24 9t-9 24l2 189q0 27 25 39q214 103 306.5 203t92.5 223q0 120 -77 190t-210 70q-115 0 -198.5 -54t-118.5 -155q-9 -27 -37 -27h-111q-17 0 -25 7t-5 18
q37 159 167.5 268t335.5 109zM631 166v-150q0 -32 -33 -32h-137q-33 0 -33 32v150q0 15 9 24t24 9h137q15 0 24 -9t9 -24z" />
    <glyph glyph-name="at" unicode="@" horiz-adv-x="1843" 
d="M942 1311q219 0 391 -92.5t267.5 -258.5t95.5 -378q0 -191 -79 -297.5t-216 -106.5q-86 0 -151.5 43.5t-98.5 118.5h-8q-39 -85 -109.5 -132.5t-165.5 -47.5q-142 0 -230.5 100.5t-88.5 269.5q0 175 93 282.5t230 107.5q70 0 129.5 -29.5t88.5 -79.5h6v55q0 33 32 33h84
q15 0 24 -9t9 -24v-315q0 -106 37.5 -163.5t106.5 -57.5q73 0 111 65t38 189q0 259 -162 414t-426 155q-181 0 -325 -73.5t-229 -216t-85 -331.5q0 -130 42.5 -238.5t122.5 -187.5t203.5 -123t278.5 -44q121 0 250 22q35 6 35 -31v-86q0 -28 -29 -34q-119 -29 -258 -29
q-246 0 -429.5 93t-281.5 262.5t-98 393.5q0 174 60.5 321t166.5 247.5t252.5 156.5t315.5 56zM899 768q-90 0 -141 -62t-51 -165q0 -105 54.5 -167.5t139.5 -62.5t135.5 62.5t50.5 163.5v18q0 97 -51 155t-137 58z" />
    <glyph glyph-name="A" unicode="A" horiz-adv-x="1363" 
d="M979 461h-592l-156 -434q-12 -27 -38 -27h-119q-19 0 -26 10t-1 27l526 1425q12 27 39 27h142q30 0 39 -27l526 -1425q6 -17 -1 -27t-26 -10h-118q-27 0 -39 27zM920 625l-232 643h-10l-232 -643h474z" />
    <glyph glyph-name="B" unicode="B" horiz-adv-x="1374" 
d="M1057 788q108 -52 165.5 -143t57.5 -209q0 -188 -129.5 -312t-341.5 -124h-629q-15 0 -24 9t-9 24l9 1423q0 33 32 33h560q204 0 326 -109.5t122 -281.5q0 -93 -36 -173t-103 -137zM334 1329l2 -481h420q123 0 191.5 63t68.5 174t-77.5 177.5t-211.5 66.5h-393zM340 160
h457q144 0 223.5 70t79.5 190q0 122 -86.5 194t-241.5 72h-434z" />
    <glyph glyph-name="C" unicode="C" horiz-adv-x="1519" 
d="M795 1513q211 0 372 -108t234 -301q6 -17 -1.5 -27t-25.5 -10l-110 -2q-26 0 -39 25q-71 127 -185 195.5t-256 68.5q-225 0 -367.5 -160t-142.5 -438q0 -282 146 -451.5t383 -169.5q308 0 436 291q13 25 37 25l108 -2q19 0 26 -10t1 -27q-31 -88 -85 -165t-130.5 -139.5
t-182 -98.5t-227.5 -36q-204 0 -362 98t-244 272.5t-86 397.5q0 225 91.5 402t251 273.5t358.5 96.5z" />
    <glyph glyph-name="D" unicode="D" horiz-adv-x="1482" 
d="M188 1489h494q338 0 522.5 -195.5t184.5 -527.5q0 -166 -47 -305.5t-135.5 -242.5t-224 -160.5t-304.5 -57.5h-498q-15 0 -24 9t-9 24l9 1423q0 33 32 33zM340 162h326q253 0 397.5 156.5t144.5 426.5q0 277 -143 430.5t-397 153.5h-334z" />
    <glyph glyph-name="E" unicode="E" 
d="M342 164h739q15 0 24 -9t9 -24v-98q0 -15 -9 -24t-24 -9h-901q-15 0 -24 9t-9 24l9 1423q0 33 32 33h891q15 0 24 -9t9 -24v-98q0 -15 -9 -24t-24 -9h-745l4 -463h637q15 0 24 -9t9 -24v-100q0 -15 -9 -24t-24 -9h-637z" />
    <glyph glyph-name="F" unicode="F" horiz-adv-x="1204" 
d="M334 1325l4 -457h635q33 0 33 -32v-99q0 -32 -33 -32h-635l4 -672q0 -15 -9 -24t-24 -9h-129q-15 0 -24 9t-9 24l9 1423q0 33 32 33h889q15 0 24 -9t9 -24v-98q0 -15 -9 -24t-24 -9h-743z" />
    <glyph glyph-name="G" unicode="G" horiz-adv-x="1587" 
d="M918 721h524q35 0 35 -39q-3 -154 -54 -285t-140.5 -224.5t-217.5 -146.5t-279 -53q-197 0 -352.5 98t-242.5 273.5t-87 398.5q0 224 91.5 400t251.5 273t360 97q209 0 370 -105.5t230 -285.5q7 -17 0 -27t-25 -10l-110 -2q-28 0 -39 23q-69 118 -183.5 183t-254.5 65
q-109 0 -202.5 -40.5t-161.5 -116t-107 -189t-39 -252.5q0 -282 146 -451.5t382 -169.5q117 0 216.5 48.5t169.5 145t93 228.5h-374q-15 0 -24 9t-9 24v98q0 15 9 24t24 9z" />
    <glyph glyph-name="H" unicode="H" horiz-adv-x="1488" 
d="M1307 0h-127q-15 0 -24 9t-9 24l2 663h-811l2 -663q0 -15 -9 -24t-24 -9h-127q-15 0 -24 9t-9 24l9 1423q0 33 32 33h113q15 0 24 -9t9 -24l2 -594h815l2 594q0 15 9 24t24 9h114q15 0 24 -9t9 -24l6 -1423q0 -33 -32 -33z" />
    <glyph glyph-name="I" unicode="I" horiz-adv-x="735" 
d="M457 1456l8 -1423q0 -15 -9 -24t-24 -9h-127q-15 0 -24 9t-9 24l7 1423q0 33 32 33h113q15 0 24 -9t9 -24z" />
    <glyph glyph-name="J" unicode="J" horiz-adv-x="999" 
d="M725 1456l4 -790q1 -186 -34.5 -312.5t-112.5 -203.5t-186.5 -111t-268.5 -37q-15 0 -24 9t-9 24v96q0 15 9 24t24 9q229 6 321.5 115t94.5 372l2 805q0 15 9 24t24 9h114q15 0 24 -9t9 -24z" />
    <glyph glyph-name="K" unicode="K" horiz-adv-x="1425" 
d="M586 750l-246 -236l2 -481q0 -15 -9 -24t-24 -9h-129q-15 0 -24 9t-9 24l9 1423q0 33 32 33h113q15 0 24 -9t9 -24l4 -729l784 746q16 16 39 16h139q23 0 28.5 -13t-11.5 -28l-610 -584l647 -823q12 -17 6.5 -29t-27.5 -12h-155q-25 0 -39 20z" />
    <glyph glyph-name="L" unicode="L" horiz-adv-x="1181" 
d="M342 164h754q32 0 32 -33v-98q0 -33 -32 -33h-916q-15 0 -24 9t-9 24l9 1423q0 33 32 33h113q15 0 24 -9t9 -24z" />
    <glyph glyph-name="M" unicode="M" horiz-adv-x="1785" 
d="M1604 0h-119q-15 0 -24 9t-9 24l-20 1253l-439 -1259q-12 -27 -39 -27h-118q-28 0 -37 27l-447 1286l-18 -1280q0 -15 -9 -24t-24 -9h-121q-15 0 -24 9t-9 24l46 1423q0 33 32 33h197q27 0 39 -27l434 -1237l434 1237q12 27 39 27h193q32 0 32 -33l43 -1423
q0 -33 -32 -33z" />
    <glyph glyph-name="N" unicode="N" horiz-adv-x="1476" 
d="M1323 1456l6 -1423q0 -15 -9 -24t-24 -9h-172q-28 0 -39 23l-753 1261l6 -1251q0 -15 -9 -24t-24 -9h-125q-15 0 -24 9t-9 24l9 1423q0 33 32 33h179q27 0 39 -23l735 -1224l6 1214q0 15 9 24t24 9h110q15 0 24 -9t9 -24z" />
    <glyph glyph-name="O" unicode="O" horiz-adv-x="1585" 
d="M805 1513q197 0 353 -92.5t244.5 -263t88.5 -389.5q0 -226 -92 -408t-254.5 -284.5t-362.5 -102.5q-196 0 -353 97.5t-246 274t-89 398.5q0 224 92.5 400t254.5 273t364 97zM793 1354q-111 0 -206 -40.5t-164.5 -116t-109 -189t-39.5 -252.5q0 -281 146 -451t375 -170
q110 0 205 43.5t164.5 122t109 195t39.5 256.5q0 277 -145.5 439.5t-374.5 162.5z" />
    <glyph glyph-name="P" unicode="P" horiz-adv-x="1343" 
d="M188 1489h566q222 0 358.5 -123t136.5 -322q0 -200 -137.5 -331t-357.5 -131h-416l4 -549q0 -15 -9 -24t-24 -9h-129q-15 0 -24 9t-9 24l9 1423q0 33 32 33zM338 739h401q156 0 243 77.5t87 209.5q0 137 -91 220t-239 83h-405z" />
    <glyph glyph-name="Q" unicode="Q" horiz-adv-x="1585" 
d="M1491 768q0 -192 -67.5 -354t-188.5 -271l108 -129q20 -27 -4 -45l-71 -59q-27 -20 -45 4l-117 139q-151 -80 -324 -80q-196 0 -353 97.5t-246 274t-89 398.5q0 224 92.5 400t254.5 273t364 97q197 0 353 -92.5t244.5 -263t88.5 -389.5zM795 135q114 0 204 43l-106 127
q-20 27 4 45l72 62q27 20 45 -4l119 -142q85 81 132.5 206t47.5 280q0 277 -145.5 439.5t-374.5 162.5q-111 0 -206 -40.5t-164.5 -116t-109 -189t-39.5 -252.5q0 -281 146 -451t375 -170z" />
    <glyph glyph-name="R" unicode="R" horiz-adv-x="1345" 
d="M639 657h-301l4 -624q0 -15 -9 -24t-24 -9h-129q-15 0 -24 9t-9 24l9 1423q0 33 32 33h568q217 0 347 -114t130 -294q0 -161 -104.5 -275.5t-284.5 -141.5l440 -625q12 -15 6 -27t-26 -12h-156q-25 0 -39 20zM336 817h399q155 0 236.5 66.5t81.5 183.5q0 121 -85 191.5
t-233 70.5h-401z" />
    <glyph glyph-name="S" unicode="S" horiz-adv-x="1341" 
d="M674 1513q106 0 197.5 -29t156.5 -79t110.5 -111.5t71.5 -132.5q13 -37 -26 -37h-111q-27 0 -39 23q-52 91 -146.5 148t-228.5 57q-151 0 -233 -59t-82 -156t81.5 -155t279.5 -118l79 -24q244 -75 353.5 -186t109.5 -267q0 -193 -144.5 -303.5t-389.5 -110.5
q-111 0 -206 24.5t-162 64.5t-118.5 93.5t-81 108t-43.5 111.5q-5 15 3.5 25t25.5 10h117q24 0 37 -25q49 -111 155 -179.5t279 -68.5q165 0 253.5 58t88.5 167q0 102 -87 174.5t-284 137.5l-84 26q-223 72 -332.5 165.5t-113.5 244.5q-4 184 142.5 293.5t371.5 109.5z" />
    <glyph glyph-name="T" unicode="T" horiz-adv-x="1198" 
d="M1169 1456v-98q0 -33 -32 -33h-447l6 -1292q0 -33 -32 -33h-127q-15 0 -24 9t-9 24l6 1292h-449q-32 0 -32 33v98q0 33 32 33h1076q32 0 32 -33z" />
    <glyph glyph-name="U" unicode="U" horiz-adv-x="1511" 
d="M1360 1456l2 -815q1 -318 -167 -493t-441 -175t-440.5 175t-166.5 493l5 815q0 33 32 33h115q15 0 24 -9t9 -24l2 -794q1 -262 113.5 -394.5t310.5 -132.5q199 0 308.5 132.5t109.5 394.5l4 794q0 33 32 33h115q15 0 24 -9t9 -24z" />
    <glyph glyph-name="V" unicode="V" horiz-adv-x="1349" 
d="M1159 1489h115q39 0 26 -37l-512 -1425q-12 -27 -38 -27h-154q-27 0 -39 27l-510 1425q-6 17 1 27t26 10h114q27 0 39 -27l441 -1216h12l440 1216q12 27 39 27z" />
    <glyph glyph-name="W" unicode="W" horiz-adv-x="2023" 
d="M1835 1489h117q38 0 28 -37l-403 -1423q-9 -29 -37 -29h-151q-28 0 -37 29l-332 1198h-16l-330 -1198q-9 -29 -37 -29h-152q-27 0 -36 29l-406 1423q-10 37 29 37h116q28 0 37 -29l332 -1161h16l326 1161q9 29 37 29h151q28 0 37 -29l326 -1161h18l330 1161q9 29 37 29z
" />
    <glyph glyph-name="X" unicode="X" horiz-adv-x="1462" 
d="M1317 0h-146q-24 0 -38 20l-406 609l-405 -609q-14 -20 -39 -20h-140q-21 0 -27 12t5 27l508 733l-453 678q-11 17 -5 28t26 11h125q23 0 38 -21l392 -571l391 571q15 21 39 21h116q20 0 26 -12t-5 -27l-471 -692l491 -719q11 -15 5 -27t-27 -12z" />
    <glyph glyph-name="Y" unicode="Y" horiz-adv-x="1224" 
d="M707 627l4 -594q0 -15 -9 -24t-24 -9h-125q-15 0 -24 9t-9 24l4 594l-475 823q-9 17 -3 28t26 11h127q27 0 39 -23l372 -647h13l374 647q11 23 39 23h117q20 0 26 -11t-3 -28z" />
    <glyph glyph-name="Z" unicode="Z" horiz-adv-x="1341" 
d="M342 166h842q15 0 24 -9t9 -24v-100q0 -15 -9 -24t-24 -9h-1049q-15 0 -24 9t-9 24v82q0 25 21 51l838 1145v14h-787q-15 0 -24 9t-9 24v98q0 15 9 24t24 9h991q15 0 24 -9t9 -24v-78q0 -30 -18 -53l-838 -1149v-10z" />
    <glyph glyph-name="bracketleft" unicode="[" horiz-adv-x="845" 
d="M360 1354l7 -1663h303q32 0 32 -33v-76q0 -33 -32 -33h-439q-32 0 -32 33l6 1880q0 15 9 24t24 9h432q32 0 32 -33v-76q0 -32 -32 -32h-310z" />
    <glyph glyph-name="backslash" unicode="\" horiz-adv-x="825" 
d="M90 1497h123q27 0 39 -27l508 -1433q6 -17 -1 -27t-24 -10h-123q-27 0 -39 27l-507 1433q-13 37 24 37z" />
    <glyph glyph-name="bracketright" unicode="]" horiz-adv-x="845" 
d="M176 1495h438q15 0 24 -9t9 -24l-6 -1880q0 -15 -9 -24t-24 -9h-432q-15 0 -24 9t-9 24v76q0 15 9 24t24 9h309l-6 1663h-303q-33 0 -33 32v76q0 15 9 24t24 9z" />
    <glyph glyph-name="asciicircum" unicode="^" horiz-adv-x="1490" 
d="M1006 424h-95q-28 0 -34 29l-129 598l-134 -598q-6 -29 -34 -29h-93q-34 0 -28 37l209 907q6 29 34 29h95q28 0 34 -29l203 -907q4 -17 -3.5 -27t-24.5 -10z" />
    <glyph glyph-name="underscore" unicode="_" horiz-adv-x="1253" 
d="M1163 -188v-62q0 -15 -9 -24t-24 -9h-1007q-15 0 -24 9t-9 24v62q0 32 33 32h1007q33 0 33 -32z" />
    <glyph glyph-name="grave" unicode="`" horiz-adv-x="817" 
d="M281 1556h102q28 0 39 -22l143 -240q10 -17 4.5 -28t-24.5 -11h-47q-22 0 -41 19l-195 242q-14 17 -8.5 28.5t27.5 11.5z" />
    <glyph glyph-name="a" unicode="a" horiz-adv-x="1148" 
d="M580 1112q192 0 300.5 -99t108.5 -272l6 -708q0 -33 -32 -33h-117q-15 0 -24 9t-9 24l2 139h-14q-57 -88 -155 -139t-222 -51q-150 0 -241 78.5t-91 222.5q0 166 134.5 250.5t437.5 113.5q79 8 115 35.5t36 85.5q0 85 -65.5 137.5t-182.5 52.5q-96 0 -159.5 -40
t-88.5 -113q-9 -27 -36 -27h-107q-17 0 -25.5 8.5t-5.5 22.5q36 140 148.5 221.5t286.5 81.5zM813 543l-8 4q-64 -29 -158 -37q-195 -22 -287 -72t-92 -143q0 -76 51.5 -117t143.5 -41q143 0 242.5 82.5t109.5 179.5z" />
    <glyph glyph-name="b" unicode="b" horiz-adv-x="1245" 
d="M332 979h12q112 133 305 133q226 0 366 -160t140 -420q0 -246 -127 -402.5t-330 -156.5q-106 0 -199 46.5t-151 134.5h-12v-121q0 -15 -9 -24t-24 -9h-119q-32 0 -32 33l8 1462q0 15 9 24t24 9h104q15 0 24 -9t9 -24zM651 954q-130 0 -220 -91.5t-105 -252.5v-137
q13 -165 104 -252.5t223 -87.5q152 0 237 108.5t85 293.5q0 197 -89 308t-235 111z" />
    <glyph glyph-name="c" unicode="c" horiz-adv-x="1089" 
d="M590 1112q171 0 288.5 -90.5t157.5 -222.5q4 -17 -3.5 -27t-24.5 -10h-107q-24 0 -39 24q-80 166 -270 166q-153 0 -238.5 -105.5t-85.5 -309.5q0 -197 86.5 -299.5t243.5 -102.5q186 0 258 148q15 24 39 24h106q18 0 25.5 -10t1.5 -27q-47 -127 -161.5 -212t-282.5 -85
q-225 0 -359.5 153.5t-134.5 403.5q0 264 137.5 423t362.5 159z" />
    <glyph glyph-name="d" unicode="d" horiz-adv-x="1243" 
d="M1085 1495l7 -1462q0 -15 -9 -24t-24 -9h-123q-15 0 -24 9t-9 24v121h-12q-54 -88 -146 -134.5t-198 -46.5q-203 0 -330 156.5t-127 402.5q0 260 140.5 420t365.5 160q185 0 303 -133h10v516q0 15 9 24t24 9h111q32 0 32 -33zM592 954q-152 0 -238 -109.5t-86 -297.5
q0 -192 89.5 -302t236.5 -110q130 0 221 91t103 253v137q-14 164 -104 251t-222 87z" />
    <glyph glyph-name="e" unicode="e" horiz-adv-x="1163" 
d="M606 1110q153 0 261.5 -75.5t158.5 -200.5t45 -283q-3 -33 -35 -33h-766q1 -179 92.5 -282t245.5 -103q174 0 262 146q11 22 39 22h105q18 0 25 -10.5t1 -28.5q-61 -139 -177 -214t-269 -75q-223 0 -363.5 156.5t-140.5 407.5q0 256 143.5 414.5t372.5 158.5zM592 952
q-130 0 -209 -81t-102 -212h608q-5 126 -84 209.5t-213 83.5z" />
    <glyph glyph-name="f" unicode="f" horiz-adv-x="759" 
d="M713 1495v-94q0 -15 -9 -24t-24 -9q-77 -2 -122 -10t-82 -33.5t-52 -74t-14 -128.5v-35h260q32 0 32 -32v-86q0 -33 -32 -33h-260l6 -903q0 -15 -9 -24t-24 -9h-123q-15 0 -24 9t-9 24l6 903h-139q-15 0 -24 9t-9 24v86q0 32 33 32h142v23q0 124 32.5 209.5t94.5 131
t138.5 63.5t178.5 16q33 -3 33 -35z" />
    <glyph glyph-name="g" unicode="g" horiz-adv-x="1247" 
d="M547 1112q108 0 199 -47.5t149 -136.5l12 2l2 125q0 32 33 32h111q32 0 32 -32l11 -920q3 -300 -130.5 -456t-367.5 -156q-155 0 -265.5 69.5t-170.5 198.5q-8 17 -1.5 28t25.5 11h109q27 0 41 -23q82 -124 262 -124q311 0 305 397v55h-10q-114 -135 -299 -135
q-224 0 -364 152.5t-140 404.5q0 240 127.5 397.5t329.5 157.5zM594 954q-146 0 -236 -112t-90 -301q0 -181 85.5 -281t238.5 -100q132 0 222 78t104 227v137q-12 164 -103.5 258t-220.5 94z" />
    <glyph glyph-name="h" unicode="h" horiz-adv-x="1183" 
d="M338 926l14 -2q130 180 336 180q156 0 247.5 -101.5t92.5 -285.5l4 -684q0 -15 -9 -24t-24 -9h-122q-15 0 -24 9t-9 24l4 639q0 128 -57 194t-162 66q-117 0 -195.5 -83t-95.5 -239l2 -577q0 -15 -9 -24t-24 -9h-123q-32 0 -32 33l8 1462q0 15 9 24t24 9h108q15 0 24 -9
t9 -24z" />
    <glyph glyph-name="i" unicode="i" horiz-adv-x="534" 
d="M356 1495v-139q0 -33 -32 -33h-109q-15 0 -24 9t-9 24v139q0 15 9 24t24 9h109q32 0 32 -33zM354 1055l6 -1022q0 -33 -32 -33h-123q-15 0 -24 9t-9 24l8 1022q0 32 33 32h109q32 0 32 -32z" />
    <glyph glyph-name="j" unicode="j" horiz-adv-x="595" 
d="M391 1495v-139q0 -15 -9 -24t-24 -9h-108q-15 0 -24 9t-9 24v139q0 15 9 24t24 9h108q15 0 24 -9t9 -24zM391 1055l8 -1092q0 -208 -97.5 -307.5t-313.5 -106.5q-15 0 -24 9t-9 24v94q0 32 33 35q123 6 172 61t51 181l6 1102q0 32 33 32h108q33 0 33 -32z" />
    <glyph glyph-name="k" unicode="k" horiz-adv-x="1159" 
d="M477 537l-139 -131l2 -373q0 -15 -9 -24t-24 -9h-123q-32 0 -32 33l8 1462q0 15 9 24t24 9h108q15 0 24 -9t9 -24l4 -897l493 473q16 16 39 16h127q23 0 28.5 -12.5t-11.5 -27.5l-424 -404l448 -602q12 -17 7 -29t-25 -12h-135q-25 0 -39 20z" />
    <glyph glyph-name="l" unicode="l" horiz-adv-x="583" 
d="M379 1495l8 -1462q0 -15 -9 -24t-24 -9h-123q-32 0 -32 33l6 1462q0 15 9 24t24 9h108q15 0 24 -9t9 -24z" />
    <glyph glyph-name="m" unicode="m" horiz-adv-x="1769" 
d="M1300 1112q154 0 241 -102t87 -293l4 -684q0 -15 -9 -24t-24 -9h-122q-15 0 -24 9t-9 24l4 639q1 135 -50.5 201.5t-148.5 66.5q-110 0 -185 -84.5t-89 -247.5l2 -575q0 -15 -9 -24t-24 -9h-121q-32 0 -32 33l2 639q1 135 -50.5 201.5t-148.5 66.5q-110 0 -187.5 -81.5
t-93.5 -248.5l4 -577q0 -33 -32 -33h-123q-15 0 -24 9t-9 24l6 1022q0 32 33 32h111q32 0 32 -32v-129h11q144 186 331 186q217 0 285 -205h14q144 205 348 205z" />
    <glyph glyph-name="n" unicode="n" horiz-adv-x="1189" 
d="M690 1112q159 0 253.5 -103.5t94.5 -291.5v-684q0 -33 -32 -33h-123q-15 0 -24 9t-9 24v639q0 132 -58 200t-163 68q-118 0 -196 -84.5t-95 -245.5l2 -577q0 -15 -9 -24t-24 -9h-123q-32 0 -32 33l8 1022q0 32 33 32h108q33 0 33 -32l2 -129l14 -2q132 188 340 188z" />
    <glyph glyph-name="o" unicode="o" 
d="M612 1112q220 0 362 -154t142 -401q0 -167 -67 -300.5t-186 -208.5t-267 -75q-219 0 -362.5 159.5t-143.5 406.5q0 253 147.5 413t374.5 160zM594 954q-144 0 -235 -108.5t-91 -290.5q0 -187 98.5 -303.5t245.5 -116.5q144 0 235 111t91 291q0 190 -97.5 303.5
t-246.5 113.5z" />
    <glyph glyph-name="p" unicode="p" horiz-adv-x="1245" 
d="M698 1112q203 0 330 -156.5t127 -402.5q0 -257 -137 -418.5t-352 -161.5q-190 0 -318 131h-10l2 -522q0 -15 -9 -24t-24 -9h-123q-32 0 -32 33l8 1473q0 32 33 32h108q33 0 33 -32l2 -125h12q58 90 151 136t199 46zM651 954q-130 0 -221 -93t-104 -257v-137
q14 -162 104 -248t223 -86q151 0 236.5 108.5t85.5 297.5q0 192 -89 303.5t-235 111.5z" />
    <glyph glyph-name="q" unicode="q" horiz-adv-x="1243" 
d="M547 1112q107 0 199 -46.5t149 -135.5h14v125q0 32 33 32h111q32 0 32 -32l7 -1473q0 -15 -9 -24t-24 -9h-123q-15 0 -24 9t-9 24l4 522h-12q-122 -131 -303 -131q-225 0 -363.5 160.5t-138.5 417.5q0 249 126.5 405t330.5 156zM594 954q-147 0 -236.5 -110.5
t-89.5 -304.5q0 -188 86 -297t238 -109q131 0 221 85t105 241v137q-12 170 -103 264t-221 94z" />
    <glyph glyph-name="r" unicode="r" horiz-adv-x="749" 
d="M702 1079v-125q0 -32 -32 -32q-71 -2 -125.5 -18t-100.5 -51t-73 -99t-33 -156l2 -565q0 -15 -9 -24t-24 -9h-123q-32 0 -32 33l8 1022q0 32 33 32h108q33 0 33 -32l2 -137l14 -3q57 84 140 136t180 59q15 1 23.5 -7.5t8.5 -23.5z" />
    <glyph glyph-name="s" unicode="s" horiz-adv-x="1062" 
d="M532 1112q88 0 162.5 -23.5t124.5 -63.5t82.5 -86t48.5 -97q6 -17 -1.5 -27t-24.5 -10h-107q-27 0 -41 22q-81 127 -254 127q-95 0 -154 -40.5t-59 -106.5q0 -59 54.5 -93t183.5 -71l84 -25q183 -54 263.5 -129t80.5 -188q0 -150 -113.5 -239t-304.5 -89
q-180 0 -297 81.5t-162 215.5q-6 17 1 27t26 10h121q24 0 39 -24q76 -150 282 -150q104 0 165 37.5t61 114.5q0 65 -57 107t-191 81l-82 25q-162 46 -246 113.5t-84 183.5q0 140 113.5 228.5t285.5 88.5z" />
    <glyph glyph-name="t" unicode="t" horiz-adv-x="716" 
d="M670 1055v-86q0 -15 -9 -24t-24 -9h-199l4 -903q0 -33 -32 -33h-123q-15 0 -24 9t-9 24l4 903h-164q-15 0 -24 9t-9 24v86q0 32 33 32h164l2 392q0 32 33 32h108q33 0 33 -32l2 -392h201q33 0 33 -32z" />
    <glyph glyph-name="u" unicode="u" horiz-adv-x="1181" 
d="M1022 1055l6 -1022q0 -15 -9 -24t-24 -9h-121q-32 0 -32 33l2 129h-15q-129 -189 -335 -189q-159 0 -250.5 107t-91.5 307l4 668q0 32 32 32h109q33 0 33 -32l4 -625q3 -285 217 -285q118 0 195.5 84t97.5 248l4 578q0 32 33 32h108q33 0 33 -32z" />
    <glyph glyph-name="v" unicode="v" horiz-adv-x="1067" 
d="M1012 1051l-353 -1024q-9 -27 -36 -27h-181q-27 0 -36 27l-351 1024q-6 17 1.5 26.5t25.5 9.5h106q28 0 37 -26l297 -866h21l299 866q9 26 37 26h106q18 0 25.5 -9.5t1.5 -26.5z" />
    <glyph glyph-name="w" unicode="w" horiz-adv-x="1583" 
d="M1397 1087h104q38 0 29 -36l-285 -1022q-9 -29 -37 -29h-172q-28 0 -37 27l-206 721h-17l-192 -719q-9 -29 -37 -29h-174q-28 0 -37 29l-283 1022q-9 36 29 36h106q29 0 37 -28l230 -862h22l232 862q8 28 36 28h95q29 0 37 -28l233 -862h20l230 862q8 28 37 28z" />
    <glyph glyph-name="x" unicode="x" horiz-adv-x="1116" 
d="M674 539l344 -500q11 -15 4.5 -27t-27.5 -12h-131q-25 0 -39 20l-274 406l-277 -406q-14 -20 -38 -20h-130q-20 0 -26 12t6 27l373 524l-330 486q-11 17 -5 27.5t26 10.5h122q25 0 39 -20l271 -393l272 393q14 20 39 20h113q21 0 27 -11.5t-5 -26.5z" />
    <glyph glyph-name="y" unicode="y" horiz-adv-x="1075" 
d="M887 1087h104q36 0 27 -36l-516 -1475q-12 -27 -39 -27h-123q-19 0 -26 10t-1 27l131 367l-389 1098q-9 36 27 36h106q28 0 37 -26l297 -860h15l311 860q12 26 39 26z" />
    <glyph glyph-name="z" unicode="z" horiz-adv-x="1007" 
d="M905 1055v-92v-2q0 -15 -18 -33l-580 -768v-8h576q32 0 32 -33v-86q0 -33 -32 -33h-760q-15 0 -24 9t-9 24v90q0 12 6 18l606 785v10h-557q-32 0 -32 33v86q0 32 32 32h727q33 0 33 -32z" />
    <glyph glyph-name="braceleft" unicode="{" horiz-adv-x="899" 
d="M756 1503v-86q0 -15 -9 -24t-24 -9h-8q-111 0 -160 -50.5t-49 -178.5v-350q0 -83 -15.5 -137.5t-40 -81.5t-63.5 -47v-15q119 -55 119 -278v-338q0 -130 49 -181t160 -51h8q33 0 33 -32v-86q0 -15 -9 -24t-24 -9h-33q-181 0 -265.5 86t-84.5 287v313q0 122 -22 175.5
t-89 64.5q-30 6 -30 34v93q0 28 30 34q67 13 89 66t22 174v317q0 200 84 283.5t266 83.5h33q15 0 24 -9t9 -24z" />
    <glyph glyph-name="bar" unicode="|" horiz-adv-x="770" 
d="M463 1554l6 -2023q0 -15 -9 -24t-24 -9h-102q-15 0 -24 9t-9 24l6 2023q0 15 9 24t24 9h90q15 0 24 -9t9 -24z" />
    <glyph glyph-name="braceright" unicode="}" horiz-adv-x="899" 
d="M143 -442v86q0 32 33 32h8q111 0 160 51t49 181v348q0 83 15.5 137.5t40 81.5t63.5 47v15q-119 55 -119 278v340q0 128 -49 178.5t-160 50.5h-8q-15 0 -24 9t-9 24v86q0 15 9 24t24 9h33q182 0 266 -85.5t84 -287.5v-313q0 -121 22 -174t89 -66q30 -6 30 -35v-92
q0 -28 -30 -34q-67 -11 -89 -64.5t-22 -175.5v-318q0 -200 -84 -283t-266 -83h-33q-15 0 -24 9t-9 24z" />
    <glyph glyph-name="asciitilde" unicode="~" horiz-adv-x="1245" 
d="M463 758q48 0 89.5 -17t70 -41t54 -48t52 -41t51.5 -17q63 0 70 92q3 33 35 33h82q15 0 23 -9t7 -24q-7 -101 -59.5 -169t-157.5 -68q-55 0 -102.5 26t-75 56.5t-64.5 56.5t-73 26q-71 0 -82 -92q-3 -33 -35 -33h-80q-32 0 -32 29q15 240 227 240z" />
    <glyph glyph-name="exclamdown" unicode="&#xa1;" horiz-adv-x="620" 
d="M205 911v158q0 15 9 24t24 9h145q15 0 24 -9t9 -24v-158q0 -32 -33 -32h-145q-33 0 -33 32zM215 -365l-6 979q0 15 9 24t24 9h123q32 0 32 -33l-6 -979q0 -32 -33 -32h-110q-33 0 -33 32z" />
    <glyph glyph-name="cent" unicode="&#xa2;" horiz-adv-x="1089" 
d="M598 317q186 0 258 148q15 24 39 24h106q18 0 25.5 -9.5t1.5 -26.5q-41 -111 -137 -192.5t-234 -100.5l7 -244q0 -15 -9 -24t-24 -9h-82q-15 0 -24 9t-9 24l6 244q-199 22 -315.5 171.5t-116.5 381.5q0 244 117.5 399t314.5 178l-6 246q0 15 9 24t24 9h82q15 0 24 -9
t9 -24l-7 -246q145 -18 244 -104.5t135 -204.5q4 -17 -3.5 -27t-24.5 -10h-107q-23 0 -39 25q-80 166 -270 166q-153 0 -238.5 -106t-85.5 -310q0 -197 86.5 -299.5t243.5 -102.5z" />
    <glyph glyph-name="sterling" unicode="&#xa3;" horiz-adv-x="1359" 
d="M399 166h781q32 0 32 -33v-100q0 -33 -32 -33h-1000q-15 0 -24 9t-9 24v90q0 25 23 39q43 30 71 59.5t45 57.5t25 68.5t10.5 78.5t2.5 102v101h-72q-15 0 -24 9t-9 24v92q0 32 33 32h72v271q0 205 122.5 332t323.5 127q96 0 174 -29.5t129.5 -82t84 -116t48.5 -139.5
q6 -35 -30 -35h-105q-29 0 -35 29q-28 102 -97.5 157.5t-174.5 55.5q-125 0 -196.5 -80t-71.5 -236v-254h405q33 0 33 -32v-92q0 -15 -9 -24t-24 -9h-405v-129q0 -221 -97 -324v-10z" />
    <glyph glyph-name="currency" unicode="&#xa4;" horiz-adv-x="1435" 
d="M1061 541q0 -105 -57 -187l102 -102q22 -22 0 -45l-55 -55q-22 -25 -45 -2l-103 102q-85 -53 -184 -53t-187 53l-100 -102q-23 -23 -45 2l-55 55q-22 23 0 45l100 98q-57 85 -57 191q0 103 55 186l-100 98q-22 23 0 45l57 58q23 22 45 0l100 -101q85 56 187 56
q103 0 186 -58l101 103q23 23 45 -2l55 -56q22 -22 0 -45l-98 -100q53 -85 53 -184zM502 541q0 -88 64 -151.5t153 -63.5q88 0 150.5 63.5t62.5 151.5q0 89 -62.5 152t-150.5 63q-89 0 -153 -63t-64 -152z" />
    <glyph glyph-name="yen" unicode="&#xa5;" horiz-adv-x="1224" 
d="M774 745h178q33 0 33 -32v-68q0 -15 -9 -24t-24 -9h-245v-137h245q15 0 24 -9t9 -24v-67q0 -15 -9 -24t-24 -9h-243l2 -309q0 -15 -9 -24t-24 -9h-125q-15 0 -24 9t-9 24l2 309h-219q-15 0 -24 9t-9 24v67q0 15 9 24t24 9h219v137h-219q-15 0 -24 9t-9 24v68q0 32 33 32
h152l-406 705q-9 17 -3 28t26 11h127q27 0 39 -23l372 -647h13l374 647q11 23 39 23h117q20 0 26 -11t-3 -28z" />
    <glyph glyph-name="brokenbar" unicode="&#xa6;" horiz-adv-x="770" 
d="M463 1554l6 -630q0 -15 -9 -24t-24 -9h-102q-15 0 -24 9t-9 24l6 630q0 15 9 24t24 9h90q15 0 24 -9t9 -24zM463 162l6 -631q0 -15 -9 -24t-24 -9h-102q-15 0 -24 9t-9 24l6 631q0 15 9 24t24 9h90q15 0 24 -9t9 -24z" />
    <glyph glyph-name="section" unicode="&#xa7;" horiz-adv-x="1165" 
d="M870 479q78 -45 113 -102t35 -133q0 -149 -111.5 -239.5t-296.5 -90.5q-177 0 -291 82.5t-161 218.5q-10 37 28 37h115q23 0 39 -25q79 -153 278 -153q99 0 158.5 37.5t59.5 111.5q0 67 -57.5 108.5t-207.5 90.5l-36 14q-68 23 -115 42.5t-92.5 46.5t-72.5 56t-43.5 69
t-16.5 89q0 160 163 256q-81 42 -122 97t-41 135q0 139 111 228t282 89q85 0 156.5 -24t120.5 -64t81 -86.5t47 -97.5q4 -17 -3.5 -27t-24.5 -10h-107q-28 0 -39 22q-81 129 -241 129q-94 0 -150.5 -41t-56.5 -106q0 -60 53 -93t194 -77l39 -12q199 -64 280 -138t81 -188
q0 -160 -148 -252zM371 752q0 -60 53 -93t194 -77l39 -15l33 -10q146 45 146 154q0 66 -57.5 106.5t-207.5 93.5l-20 7q-85 -21 -132.5 -64t-47.5 -102z" />
    <glyph glyph-name="dieresis" unicode="&#xa8;" horiz-adv-x="903" 
d="M387 1495v-139q0 -15 -9 -24t-24 -9h-96q-15 0 -24 9t-9 24v139q0 15 9 24t24 9h96q15 0 24 -9t9 -24zM684 1495v-139q0 -15 -9 -24t-24 -9h-96q-15 0 -24 9t-9 24v139q0 15 9 24t24 9h96q15 0 24 -9t9 -24z" />
    <glyph glyph-name="copyright" unicode="&#xa9;" horiz-adv-x="1785" 
d="M893 1491q123 0 235.5 -34t205 -99.5t161 -156t106 -208t37.5 -250.5q0 -220 -100.5 -391.5t-269.5 -262.5t-375 -91q-153 0 -289.5 53.5t-237.5 149t-160 236.5t-59 306t59 306.5t160 237.5t237.5 150t289.5 54zM893 1370q-128 0 -242.5 -45t-199 -125.5t-134 -199
t-49.5 -257.5q0 -184 84.5 -328t226.5 -221t314 -77t314.5 77t227.5 221t85 328q0 111 -32 210t-90 174.5t-135.5 130.5t-172 83.5t-197.5 28.5zM903 1169q129 0 219 -66t121 -165q6 -17 -1.5 -27t-24.5 -10h-66q-23 0 -39 25q-61 125 -209 125q-119 0 -184.5 -80
t-65.5 -232q0 -149 67.5 -227t190.5 -78q143 0 201 113q15 24 39 24h59q19 0 27 -9.5t2 -26.5q-40 -97 -127.5 -160.5t-212.5 -63.5q-172 0 -275.5 117t-103.5 307q0 197 105.5 315.5t277.5 118.5z" />
    <glyph glyph-name="guillemetleft" unicode="&#xab;" horiz-adv-x="1263" 
d="M197 479v135q0 25 20 39l350 228q17 12 28 5.5t11 -26.5v-96q0 -25 -20 -39l-273 -178l273 -176q20 -14 20 -39v-96q0 -20 -11 -26.5t-28 5.5l-350 225q-20 14 -20 39zM1067 860v-96q0 -25 -20 -39l-273 -178l273 -176q20 -14 20 -39v-96q0 -20 -11 -26.5t-28 5.5
l-350 225q-21 15 -21 39v135q0 24 21 39l350 228q17 12 28 5.5t11 -26.5z" />
    <glyph glyph-name="registered" unicode="&#xae;" horiz-adv-x="1103" 
d="M551 1552q151 0 259 -107t108 -257q0 -151 -108 -259t-259 -108t-258 108t-107 259t107 257.5t258 106.5zM551 913q114 0 195 81t81 194q0 114 -81 194t-195 80t-194.5 -80t-80.5 -194q0 -113 80.5 -194t194.5 -81zM688 1247q0 -31 -17.5 -55.5t-49.5 -34.5l55 -86
q11 -17 5 -28t-26 -11h-16q-27 0 -41 23l-57 94h-35v-84q0 -15 -9 -24t-24 -9h-12q-15 0 -24 9t-9 24v242q0 32 33 32h112q55 0 85 -25.5t30 -66.5zM506 1214h65q41 0 41 29q0 13 -12 22t-29 9h-65v-60z" />
    <glyph glyph-name="macron" unicode="&#xaf;" horiz-adv-x="940" 
d="M705 1417v-69q0 -15 -9 -24t-24 -9h-402q-32 0 -32 33v69q0 33 32 33h402q15 0 24 -9t9 -24z" />
    <glyph glyph-name="degree" unicode="&#xb0;" horiz-adv-x="899" 
d="M451 1552q119 0 201.5 -83t82.5 -201q0 -119 -83 -203t-201 -84q-120 0 -203.5 84t-83.5 203t83.5 201.5t203.5 82.5zM451 1419q-63 0 -107.5 -44t-44.5 -107q0 -62 44.5 -107t107.5 -45q61 0 105 45t44 107q0 63 -43.5 107t-105.5 44z" />
    <glyph glyph-name="twosuperior" unicode="&#xb2;" horiz-adv-x="675" 
d="M375 1497q93 0 143.5 -47.5t50.5 -114.5q0 -92 -108 -182l-109 -94v-8h197q15 0 24 -9t9 -24v-31q0 -15 -9 -24t-24 -9h-350q-15 0 -24 9t-9 24v31q0 21 12 31l199 172q41 33 58.5 56t17.5 48q0 30 -22.5 49t-61.5 19q-66 0 -95 -45q-16 -25 -38 -25h-50q-17 0 -26 6.5
t-6 16.5q17 61 74 106t147 45z" />
    <glyph glyph-name="threesuperior" unicode="&#xb3;" horiz-adv-x="632" 
d="M422 1231q52 -15 84.5 -46.5t32.5 -80.5q0 -70 -57.5 -114t-159.5 -44q-94 0 -150.5 37.5t-71.5 93.5q-9 35 29 35h53q24 0 39 -27q24 -43 101 -43q100 0 100 68q0 74 -150 74h-4q-32 0 -32 33v18q0 33 32 33h4q134 0 134 67q0 29 -25.5 47.5t-65.5 18.5q-59 0 -86 -37
q-16 -25 -39 -25h-47q-19 0 -26.5 10t-1.5 27q22 51 74 86t137 35q95 0 144.5 -42t49.5 -101q0 -86 -98 -123z" />
    <glyph glyph-name="acute" unicode="&#xb4;" horiz-adv-x="817" 
d="M557 1516l-197 -242q-19 -19 -41 -19h-45q-20 0 -25.5 11t3.5 28l143 240q11 22 39 22h105q20 0 25.5 -11.5t-7.5 -28.5z" />
    <glyph glyph-name="micro" unicode="&#xb5;" horiz-adv-x="1183" 
d="M999 0h-122q-15 0 -24 9t-9 24l4 129h-14q-132 -189 -338 -189q-118 0 -201 62q44 -228 47 -453q0 -15 -9 -24t-24 -9h-125q-32 0 -32 33l4 778v27l4 668q0 32 33 32h108q33 0 33 -32l4 -625q0 -285 217 -285q117 0 195 84.5t98 247.5l2 578q0 32 33 32h110q33 0 33 -32
l6 -1022q0 -15 -9 -24t-24 -9z" />
    <glyph glyph-name="paragraph" unicode="&#xb6;" horiz-adv-x="1429" 
d="M512 1262h262q15 0 24 -9t9 -24v-1401q0 -15 -9 -24t-24 -9h-102q-15 0 -24 9t-9 24v645h-127q-192 0 -307 110.5t-115 286.5q0 174 114.5 283t307.5 109zM1090 1262h108q15 0 24 -9t9 -24v-1401q0 -15 -9 -24t-24 -9h-111q-32 0 -32 33l2 1401q0 15 9 24t24 9z" />
    <glyph glyph-name="periodcentered" unicode="&#xb7;" horiz-adv-x="737" 
d="M469 647v-149q0 -15 -9 -24t-24 -9h-135q-15 0 -24 9t-9 24v149q0 15 9 24t24 9h135q15 0 24 -9t9 -24z" />
    <glyph glyph-name="cedilla" unicode="&#xb8;" horiz-adv-x="843" 
d="M475 -10l-29 -96q71 -13 115.5 -58t44.5 -117q0 -80 -55 -132t-154 -52q-70 0 -131 31q-28 13 -18 43l10 33q9 30 43 18q55 -22 96 -22q40 0 67.5 22t27.5 53q0 40 -34 65.5t-104 26.5h-6q-39 0 -29 37l48 158q9 27 36 27h46q39 0 26 -37z" />
    <glyph glyph-name="onesuperior" unicode="&#xb9;" horiz-adv-x="573" 
d="M422 1454l4 -467q0 -15 -9 -24t-24 -9h-61q-15 0 -24 9t-9 24v404h-6l-103 -88q-26 -20 -47 4l-26 30q-23 27 4 45l106 91q20 14 41 14h121q15 0 24 -9t9 -24z" />
    <glyph glyph-name="guillemetright" unicode="&#xbb;" horiz-adv-x="1263" 
d="M197 764v96q0 20 11 26.5t28 -5.5l350 -226q20 -14 20 -39v-135q0 -25 -20 -39l-350 -227q-17 -12 -28 -5.5t-11 26.5v98q0 25 20 39l272 176l-272 176q-20 14 -20 39zM696 881l351 -226q20 -14 20 -39v-135q0 -25 -20 -39l-351 -227q-17 -12 -28 -5.5t-11 26.5v98
q0 24 21 39l272 176l-272 176q-21 15 -21 39v96q0 20 11 26.5t28 -5.5z" />
    <glyph glyph-name="questiondown" unicode="&#xbf;" horiz-adv-x="1173" 
d="M543 922v147q0 33 32 33h136q32 0 32 -33v-147q0 -33 -32 -33h-136q-32 0 -32 33zM559 -430q-214 0 -335.5 119t-121.5 301q0 160 104 285t310 233v143q0 15 9 24t24 9h125q15 0 24 -9t9 -24v-190q0 -27 -25 -39q-215 -101 -308 -201t-93 -223q0 -120 76.5 -190
t211.5 -70q114 0 198.5 53.5t117.5 151.5q8 28 37 28h112q17 0 25.5 -6.5t5.5 -17.5q-17 -75 -57.5 -141.5t-102 -120t-151 -84.5t-195.5 -31z" />
    <glyph glyph-name="Agrave" unicode="&#xc0;" horiz-adv-x="1363" 
d="M735 1659h-45q-23 0 -41 18l-196 242q-13 17 -7.5 29t25.5 12h104q27 0 39 -23l144 -239q9 -17 2.5 -28t-25.5 -11zM979 461h-592l-156 -434q-12 -27 -38 -27h-119q-19 0 -26 10t-1 27l526 1425q12 27 39 27h142q30 0 39 -27l526 -1425q6 -17 -1 -27t-26 -10h-118
q-27 0 -39 27zM920 625l-232 643h-10l-232 -643h474z" />
    <glyph glyph-name="Aacute" unicode="&#xc1;" horiz-adv-x="1363" 
d="M928 1919l-197 -242q-18 -18 -41 -18h-45q-20 0 -25.5 11t3.5 28l143 239q12 23 39 23h104q21 0 26.5 -12t-7.5 -29zM979 461h-592l-156 -434q-12 -27 -38 -27h-119q-19 0 -26 10t-1 27l526 1425q12 27 39 27h142q30 0 39 -27l526 -1425q6 -17 -1 -27t-26 -10h-118
q-27 0 -39 27zM920 625l-232 643h-10l-232 -643h474z" />
    <glyph glyph-name="Acircumflex" unicode="&#xc2;" horiz-adv-x="1363" 
d="M672 1849l-121 -170q-14 -20 -39 -20h-86q-21 0 -26.5 12t6.5 29l198 237q19 19 41 19h74q22 0 41 -19l201 -237q12 -17 6.5 -29t-27.5 -12h-88q-25 0 -39 20l-125 170h-16zM979 461h-592l-156 -434q-12 -27 -38 -27h-119q-19 0 -26 10t-1 27l526 1425q12 27 39 27h142
q30 0 39 -27l526 -1425q6 -17 -1 -27t-26 -10h-118q-27 0 -39 27zM920 625l-232 643h-10l-232 -643h474z" />
    <glyph glyph-name="Atilde" unicode="&#xc3;" horiz-adv-x="1363" 
d="M582 1796q-52 0 -60 -70q-3 -32 -35 -32h-45q-33 0 -30 32q5 84 45.5 136.5t122.5 52.5q36 0 67 -14t52 -33.5t39.5 -39.5t38 -34t38.5 -14q46 0 53 69q3 33 35 33h43q15 0 23.5 -9t7.5 -24q-5 -81 -44 -134.5t-118 -53.5q-33 0 -62 14t-49 33.5t-38.5 39.5t-40 34
t-43.5 14zM979 461h-592l-156 -434q-12 -27 -38 -27h-119q-19 0 -26 10t-1 27l526 1425q12 27 39 27h142q30 0 39 -27l526 -1425q6 -17 -1 -27t-26 -10h-118q-27 0 -39 27zM920 625l-232 643h-10l-232 -643h474z" />
    <glyph glyph-name="Adieresis" unicode="&#xc4;" horiz-adv-x="1363" 
d="M623 1901v-140q0 -32 -33 -32h-94q-33 0 -33 32v140q0 32 33 32h94q33 0 33 -32zM920 1901v-140q0 -32 -33 -32h-94q-33 0 -33 32v140q0 32 33 32h94q33 0 33 -32zM979 461h-592l-156 -434q-12 -27 -38 -27h-119q-19 0 -26 10t-1 27l526 1425q12 27 39 27h142
q30 0 39 -27l526 -1425q6 -17 -1 -27t-26 -10h-118q-27 0 -39 27zM920 625l-232 643h-10l-232 -643h474z" />
    <glyph glyph-name="Aring" unicode="&#xc5;" horiz-adv-x="1363" 
d="M680 1608q-78 0 -131 51t-53 133q0 83 53 134.5t131 51.5q80 0 133 -51.5t53 -134.5q0 -82 -53.5 -133t-132.5 -51zM680 1884q-38 0 -64 -25t-26 -67q0 -39 26.5 -64.5t63.5 -25.5q39 0 65.5 25.5t26.5 64.5q0 42 -26.5 67t-65.5 25zM979 461h-592l-156 -434
q-12 -27 -38 -27h-119q-19 0 -26 10t-1 27l526 1425q12 27 39 27h142q30 0 39 -27l526 -1425q6 -17 -1 -27t-26 -10h-118q-27 0 -39 27zM920 625l-232 643h-10l-232 -643h474z" />
    <glyph glyph-name="AE" unicode="&#xc6;" horiz-adv-x="1931" 
d="M1161 164h643q15 0 24 -9t9 -24v-98q0 -15 -9 -24t-24 -9h-790q-15 0 -24 9t-9 24v428h-498l-250 -438q-11 -23 -38 -23h-123q-20 0 -26 11t3 28l817 1429q12 23 39 23h897q15 0 24 -9t9 -24v-98q0 -15 -9 -24t-24 -9h-641v-465h539q15 0 24 -9t9 -24v-100q0 -15 -9 -24
t-24 -9h-539v-532zM981 625v714l-406 -714h406z" />
    <glyph glyph-name="Ccedilla" unicode="&#xc7;" horiz-adv-x="1519" 
d="M1276 451l108 -2q19 0 26 -10t1 -27q-30 -86 -82 -161.5t-125.5 -137.5t-174.5 -99t-218 -41l-31 -98q71 -13 115.5 -57.5t44.5 -116.5q0 -80 -55 -132t-154 -52q-72 0 -131 30q-28 13 -18 43l10 33q9 31 43 19q57 -23 96 -23t66.5 22.5t27.5 53.5q0 40 -33.5 65.5
t-103.5 26.5h-6q-39 0 -29 37l47 153q-181 21 -319 123.5t-212.5 268.5t-74.5 372q0 225 91.5 402t251 273.5t358.5 96.5q211 0 372 -108t234 -301q6 -17 -1.5 -27t-25.5 -10l-110 -2q-26 0 -39 25q-71 127 -185 195.5t-256 68.5q-225 0 -367.5 -160t-142.5 -438
q0 -282 146 -451.5t383 -169.5q308 0 436 291q13 25 37 25z" />
    <glyph glyph-name="Egrave" unicode="&#xc8;" 
d="M670 1659h-45q-23 0 -41 18l-197 242q-13 17 -7.5 29t26.5 12h104q28 0 39 -23l143 -239q9 -17 3 -28t-25 -11zM342 164h739q15 0 24 -9t9 -24v-98q0 -15 -9 -24t-24 -9h-901q-15 0 -24 9t-9 24l9 1423q0 33 32 33h891q15 0 24 -9t9 -24v-98q0 -15 -9 -24t-24 -9h-745
l4 -463h637q15 0 24 -9t9 -24v-100q0 -15 -9 -24t-24 -9h-637z" />
    <glyph glyph-name="Eacute" unicode="&#xc9;" 
d="M860 1919l-196 -242q-18 -18 -41 -18h-45q-20 0 -26 11t3 28l143 239q12 23 39 23h105q20 0 25.5 -12t-7.5 -29zM342 164h739q15 0 24 -9t9 -24v-98q0 -15 -9 -24t-24 -9h-901q-15 0 -24 9t-9 24l9 1423q0 33 32 33h891q15 0 24 -9t9 -24v-98q0 -15 -9 -24t-24 -9h-745
l4 -463h637q15 0 24 -9t9 -24v-100q0 -15 -9 -24t-24 -9h-637z" />
    <glyph glyph-name="Ecircumflex" unicode="&#xca;" 
d="M604 1849l-121 -170q-14 -20 -39 -20h-86q-21 0 -26.5 12t6.5 29l199 237q19 19 41 19h73q22 0 41 -19l201 -237q12 -17 6.5 -29t-27.5 -12h-88q-25 0 -39 20l-124 170h-17zM342 164h739q15 0 24 -9t9 -24v-98q0 -15 -9 -24t-24 -9h-901q-15 0 -24 9t-9 24l9 1423
q0 33 32 33h891q15 0 24 -9t9 -24v-98q0 -15 -9 -24t-24 -9h-745l4 -463h637q15 0 24 -9t9 -24v-100q0 -15 -9 -24t-24 -9h-637z" />
    <glyph glyph-name="Edieresis" unicode="&#xcb;" 
d="M557 1901v-140q0 -32 -33 -32h-94q-33 0 -33 32v140q0 32 33 32h94q33 0 33 -32zM854 1901v-140q0 -32 -33 -32h-94q-33 0 -33 32v140q0 32 33 32h94q33 0 33 -32zM342 164h739q15 0 24 -9t9 -24v-98q0 -15 -9 -24t-24 -9h-901q-15 0 -24 9t-9 24l9 1423q0 33 32 33h891
q15 0 24 -9t9 -24v-98q0 -15 -9 -24t-24 -9h-745l4 -463h637q15 0 24 -9t9 -24v-100q0 -15 -9 -24t-24 -9h-637z" />
    <glyph glyph-name="Igrave" unicode="&#xcc;" horiz-adv-x="735" 
d="M158 1960h104q28 0 39 -23l143 -239q9 -17 3 -28t-25 -11h-45q-23 0 -41 18l-197 242q-13 17 -7.5 29t26.5 12zM457 1456l8 -1423q0 -15 -9 -24t-24 -9h-127q-15 0 -24 9t-9 24l7 1423q0 33 32 33h113q15 0 24 -9t9 -24z" />
    <glyph glyph-name="Iacute" unicode="&#xcd;" horiz-adv-x="735" 
d="M612 1919l-196 -242q-18 -18 -41 -18h-45q-20 0 -26 11t3 28l144 239q11 23 38 23h105q20 0 25.5 -12t-7.5 -29zM457 1456l8 -1423q0 -15 -9 -24t-24 -9h-127q-15 0 -24 9t-9 24l7 1423q0 33 32 33h113q15 0 24 -9t9 -24z" />
    <glyph glyph-name="Icircumflex" unicode="&#xce;" horiz-adv-x="735" 
d="M627 1659h-88q-25 0 -39 20l-125 170h-17l-120 -170q-14 -20 -39 -20h-86q-22 0 -27.5 12t6.5 29l199 237q19 19 41 19h74q21 0 40 -19l201 -237q12 -17 6.5 -29t-26.5 -12zM457 1456l8 -1423q0 -15 -9 -24t-24 -9h-127q-15 0 -24 9t-9 24l7 1423q0 33 32 33h113
q15 0 24 -9t9 -24z" />
    <glyph glyph-name="Idieresis" unicode="&#xcf;" horiz-adv-x="735" 
d="M309 1901v-140q0 -32 -33 -32h-94q-32 0 -32 32v140q0 32 32 32h94q33 0 33 -32zM606 1901v-140q0 -32 -33 -32h-94q-33 0 -33 32v140q0 32 33 32h94q33 0 33 -32zM457 1456l8 -1423q0 -15 -9 -24t-24 -9h-127q-15 0 -24 9t-9 24l7 1423q0 33 32 33h113q15 0 24 -9t9 -24
z" />
    <glyph glyph-name="Eth" unicode="&#xd0;" horiz-adv-x="1482" 
d="M188 1489h494q338 0 522.5 -195.5t184.5 -527.5q0 -166 -47 -305.5t-135.5 -242.5t-224 -160.5t-304.5 -57.5h-498q-15 0 -24 9t-9 24l3 467h-111q-33 0 -33 32v93q0 32 33 32h113l4 799q0 33 32 33zM340 162h326q253 0 397.5 156.5t144.5 426.5q0 277 -143 430.5
t-397 153.5h-334l4 -672h350q33 0 33 -32v-93q0 -32 -33 -32h-350z" />
    <glyph glyph-name="Ntilde" unicode="&#xd1;" horiz-adv-x="1476" 
d="M639 1804q-52 0 -59 -69q-3 -33 -35 -33h-45q-15 0 -23.5 9t-7.5 24q5 84 45.5 136t122.5 52q36 0 67 -14t52 -33.5t39.5 -39.5t38 -34t38.5 -14q47 0 54 70q3 32 35 32h43q33 0 30 -32q-5 -81 -44 -135t-118 -54q-33 0 -62 14t-49 33.5t-38.5 39.5t-40 34t-43.5 14z
M1323 1456l6 -1423q0 -15 -9 -24t-24 -9h-172q-28 0 -39 23l-753 1261l6 -1251q0 -15 -9 -24t-24 -9h-125q-15 0 -24 9t-9 24l9 1423q0 33 32 33h179q27 0 39 -23l735 -1224l6 1214q0 15 9 24t24 9h110q15 0 24 -9t9 -24z" />
    <glyph glyph-name="Ograve" unicode="&#xd2;" horiz-adv-x="1585" 
d="M584 1968h104q28 0 39 -22l143 -240q9 -17 3 -28t-25 -11h-45q-22 0 -41 19l-197 241q-13 17 -7.5 29t26.5 12zM805 1513q197 0 353 -92.5t244.5 -263t88.5 -389.5q0 -226 -92 -408t-254.5 -284.5t-362.5 -102.5q-196 0 -353 97.5t-246 274t-89 398.5q0 224 92.5 400
t254.5 273t364 97zM793 1354q-111 0 -206 -40.5t-164.5 -116t-109 -189t-39.5 -252.5q0 -281 146 -451t375 -170q110 0 205 43.5t164.5 122t109 195t39.5 256.5q0 277 -145.5 439.5t-374.5 162.5z" />
    <glyph glyph-name="Oacute" unicode="&#xd3;" horiz-adv-x="1585" 
d="M1038 1927l-196 -241q-19 -19 -41 -19h-45q-20 0 -26 11t3 28l144 240q11 22 38 22h105q20 0 25.5 -12t-7.5 -29zM805 1513q197 0 353 -92.5t244.5 -263t88.5 -389.5q0 -226 -92 -408t-254.5 -284.5t-362.5 -102.5q-196 0 -353 97.5t-246 274t-89 398.5q0 224 92.5 400
t254.5 273t364 97zM793 1354q-111 0 -206 -40.5t-164.5 -116t-109 -189t-39.5 -252.5q0 -281 146 -451t375 -170q110 0 205 43.5t164.5 122t109 195t39.5 256.5q0 277 -145.5 439.5t-374.5 162.5z" />
    <glyph glyph-name="Ocircumflex" unicode="&#xd4;" horiz-adv-x="1585" 
d="M1051 1667h-88q-24 0 -39 21l-125 170h-17l-120 -170q-15 -21 -39 -21h-86q-22 0 -27.5 12t6.5 29l199 238q18 18 41 18h73q23 0 41 -18l201 -238q12 -17 6.5 -29t-26.5 -12zM805 1513q197 0 353 -92.5t244.5 -263t88.5 -389.5q0 -226 -92 -408t-254.5 -284.5
t-362.5 -102.5q-196 0 -353 97.5t-246 274t-89 398.5q0 224 92.5 400t254.5 273t364 97zM793 1354q-111 0 -206 -40.5t-164.5 -116t-109 -189t-39.5 -252.5q0 -281 146 -451t375 -170q110 0 205 43.5t164.5 122t109 195t39.5 256.5q0 277 -145.5 439.5t-374.5 162.5z" />
    <glyph glyph-name="Otilde" unicode="&#xd5;" horiz-adv-x="1585" 
d="M690 1923q36 0 67 -14t52.5 -33.5t40 -39.5t38 -34t38.5 -14q46 0 53 70q3 32 35 32h43q33 0 30 -32q-5 -81 -43.5 -135t-117.5 -54q-33 0 -62 14t-49.5 33.5t-39 39.5t-40 34t-43.5 14q-52 0 -59 -69q-3 -33 -35 -33h-45q-15 0 -23.5 9t-7.5 24q5 84 45.5 136t122.5 52z
M805 1513q197 0 353 -92.5t244.5 -263t88.5 -389.5q0 -226 -92 -408t-254.5 -284.5t-362.5 -102.5q-196 0 -353 97.5t-246 274t-89 398.5q0 224 92.5 400t254.5 273t364 97zM793 1354q-111 0 -206 -40.5t-164.5 -116t-109 -189t-39.5 -252.5q0 -281 146 -451t375 -170
q110 0 205 43.5t164.5 122t109 195t39.5 256.5q0 277 -145.5 439.5t-374.5 162.5z" />
    <glyph glyph-name="Odieresis" unicode="&#xd6;" horiz-adv-x="1585" 
d="M733 1909v-140q0 -32 -33 -32h-94q-33 0 -33 32v140q0 15 9 24t24 9h94q15 0 24 -9t9 -24zM1030 1909v-140q0 -32 -33 -32h-94q-33 0 -33 32v140q0 15 9 24t24 9h94q15 0 24 -9t9 -24zM805 1513q197 0 353 -92.5t244.5 -263t88.5 -389.5q0 -226 -92 -408t-254.5 -284.5
t-362.5 -102.5q-196 0 -353 97.5t-246 274t-89 398.5q0 224 92.5 400t254.5 273t364 97zM793 1354q-111 0 -206 -40.5t-164.5 -116t-109 -189t-39.5 -252.5q0 -281 146 -451t375 -170q110 0 205 43.5t164.5 122t109 195t39.5 256.5q0 277 -145.5 439.5t-374.5 162.5z" />
    <glyph glyph-name="multiply" unicode="&#xd7;" horiz-adv-x="1312" 
d="M758 492l286 -287q22 -23 0 -45l-55 -56q-22 -25 -45 -2l-287 289l-288 -289q-23 -22 -45 0l-56 58q-22 22 0 45l289 287l-289 288q-22 22 0 45l56 54q22 23 45 0l288 -287l287 287q22 23 45 0l53 -54q25 -22 2 -45z" />
    <glyph glyph-name="Oslash" unicode="&#xd8;" horiz-adv-x="1638" 
d="M1501 1456l-137 -166q178 -203 178 -522q0 -226 -92 -408t-254 -284.5t-362 -102.5q-248 0 -431 156l-90 -111q-18 -18 -41 -18h-125q-20 0 -25.5 12t7.5 29l168 203q-152 207 -152 499q0 224 92.5 400t254.5 273t364 97q224 0 393 -118l70 84q18 18 41 18h123
q20 0 25.5 -12t-7.5 -29zM326 756q0 -213 90 -371l725 877q-131 92 -299 92q-227 0 -371.5 -160t-144.5 -438zM846 135q110 0 205 43.5t164 122t108 195t39 256.5q0 242 -113 399l-735 -889q136 -127 332 -127z" />
    <glyph glyph-name="Ugrave" unicode="&#xd9;" horiz-adv-x="1511" 
d="M543 1968h104q28 0 39 -22l143 -240q9 -17 3 -28t-25 -11h-45q-22 0 -41 19l-197 241q-13 17 -7.5 29t26.5 12zM1360 1456l2 -815q1 -318 -167 -493t-441 -175t-440.5 175t-166.5 493l5 815q0 33 32 33h115q15 0 24 -9t9 -24l2 -794q1 -262 113.5 -394.5t310.5 -132.5
q199 0 308.5 132.5t109.5 394.5l4 794q0 33 32 33h115q15 0 24 -9t9 -24z" />
    <glyph glyph-name="Uacute" unicode="&#xda;" horiz-adv-x="1511" 
d="M997 1927l-196 -241q-19 -19 -41 -19h-45q-20 0 -26 11t3 28l144 240q11 22 38 22h105q20 0 25.5 -12t-7.5 -29zM1360 1456l2 -815q1 -318 -167 -493t-441 -175t-440.5 175t-166.5 493l5 815q0 33 32 33h115q15 0 24 -9t9 -24l2 -794q1 -262 113.5 -394.5t310.5 -132.5
q199 0 308.5 132.5t109.5 394.5l4 794q0 33 32 33h115q15 0 24 -9t9 -24z" />
    <glyph glyph-name="Ucircumflex" unicode="&#xdb;" horiz-adv-x="1511" 
d="M1012 1667h-88q-24 0 -39 21l-125 170h-17l-120 -170q-15 -21 -39 -21h-86q-22 0 -27.5 12t6.5 29l199 238q18 18 41 18h74q22 0 40 -18l201 -238q12 -17 6.5 -29t-26.5 -12zM1360 1456l2 -815q1 -318 -167 -493t-441 -175t-440.5 175t-166.5 493l5 815q0 33 32 33h115
q15 0 24 -9t9 -24l2 -794q1 -262 113.5 -394.5t310.5 -132.5q199 0 308.5 132.5t109.5 394.5l4 794q0 33 32 33h115q15 0 24 -9t9 -24z" />
    <glyph glyph-name="Udieresis" unicode="&#xdc;" horiz-adv-x="1511" 
d="M694 1909v-140q0 -32 -32 -32h-95q-32 0 -32 32v140q0 33 32 33h95q32 0 32 -33zM991 1909v-140q0 -32 -33 -32h-94q-33 0 -33 32v140q0 15 9 24t24 9h94q15 0 24 -9t9 -24zM1360 1456l2 -815q1 -318 -167 -493t-441 -175t-440.5 175t-166.5 493l5 815q0 33 32 33h115
q15 0 24 -9t9 -24l2 -794q1 -262 113.5 -394.5t310.5 -132.5q199 0 308.5 132.5t109.5 394.5l4 794q0 33 32 33h115q15 0 24 -9t9 -24z" />
    <glyph glyph-name="Yacute" unicode="&#xdd;" horiz-adv-x="1224" 
d="M858 1927l-196 -241q-19 -19 -41 -19h-46q-20 0 -25.5 11t3.5 28l143 240q11 22 39 22h105q20 0 25.5 -12t-7.5 -29zM707 627l4 -594q0 -15 -9 -24t-24 -9h-125q-15 0 -24 9t-9 24l4 594l-475 823q-9 17 -3 28t26 11h127q27 0 39 -23l372 -647h13l374 647q11 23 39 23
h117q20 0 26 -11t-3 -28z" />
    <glyph glyph-name="Thorn" unicode="&#xde;" horiz-adv-x="1343" 
d="M336 1233h418q222 0 358.5 -122.5t136.5 -319.5q0 -202 -137.5 -333.5t-357.5 -131.5h-414l2 -293q0 -15 -9 -24t-24 -9h-129q-15 0 -24 9t-9 24l9 1423q0 33 32 33h113q15 0 24 -9t9 -24zM340 485h399q156 0 243 77.5t87 209.5q0 137 -90.5 219t-239.5 82h-403z" />
    <glyph glyph-name="germandbls" unicode="&#xdf;" horiz-adv-x="1255" 
d="M868 776q146 -43 219.5 -138.5t73.5 -229.5q0 -90 -32 -164.5t-97.5 -133t-174 -92.5t-251.5 -38q-35 0 -35 32v101q0 32 33 32q383 12 383 271q0 125 -90 196.5t-270 77.5q-15 0 -24 9t-9 24v86q0 33 33 33q149 9 224 79.5t75 180.5q0 114 -76 184t-199 70
q-142 0 -229 -102t-86 -316l6 -905q0 -15 -9 -24t-24 -9h-129q-15 0 -24 9t-9 24l9 905q2 268 135 423t364 155q103 0 187.5 -32t139.5 -87t84.5 -127t29.5 -152q0 -112 -57.5 -202.5t-170.5 -139.5z" />
    <glyph glyph-name="agrave" unicode="&#xe0;" horiz-adv-x="1148" 
d="M358 1556h105q28 0 39 -22l143 -240q9 -17 3 -28t-25 -11h-45q-22 0 -41 19l-197 242q-13 17 -7.5 28.5t25.5 11.5zM580 1112q192 0 300.5 -99t108.5 -272l6 -708q0 -33 -32 -33h-117q-15 0 -24 9t-9 24l2 139h-14q-57 -88 -155 -139t-222 -51q-150 0 -241 78.5
t-91 222.5q0 166 134.5 250.5t437.5 113.5q79 8 115 35.5t36 85.5q0 85 -65.5 137.5t-182.5 52.5q-96 0 -159.5 -40t-88.5 -113q-9 -27 -36 -27h-107q-17 0 -25.5 8.5t-5.5 22.5q36 140 148.5 221.5t286.5 81.5zM813 543l-8 4q-64 -29 -158 -37q-195 -22 -287 -72t-92 -143
q0 -76 51.5 -117t143.5 -41q143 0 242.5 82.5t109.5 179.5z" />
    <glyph glyph-name="aacute" unicode="&#xe1;" horiz-adv-x="1148" 
d="M813 1516l-197 -242q-19 -19 -41 -19h-45q-20 0 -25.5 11t3.5 28l143 240q11 22 39 22h105q20 0 25.5 -11.5t-7.5 -28.5zM580 1112q192 0 300.5 -99t108.5 -272l6 -708q0 -33 -32 -33h-117q-15 0 -24 9t-9 24l2 139h-14q-57 -88 -155 -139t-222 -51q-150 0 -241 78.5
t-91 222.5q0 166 134.5 250.5t437.5 113.5q79 8 115 35.5t36 85.5q0 85 -65.5 137.5t-182.5 52.5q-96 0 -159.5 -40t-88.5 -113q-9 -27 -36 -27h-107q-17 0 -25.5 8.5t-5.5 22.5q36 140 148.5 221.5t286.5 81.5zM813 543l-8 4q-64 -29 -158 -37q-195 -22 -287 -72t-92 -143
q0 -76 51.5 -117t143.5 -41q143 0 242.5 82.5t109.5 179.5z" />
    <glyph glyph-name="acircumflex" unicode="&#xe2;" horiz-adv-x="1148" 
d="M827 1255h-88q-24 0 -39 21l-125 170h-16l-121 -170q-15 -21 -39 -21h-86q-21 0 -26.5 12t6.5 29l199 238q18 18 40 18h74q23 0 41 -18l201 -238q12 -17 6.5 -29t-27.5 -12zM580 1112q192 0 300.5 -99t108.5 -272l6 -708q0 -33 -32 -33h-117q-15 0 -24 9t-9 24l2 139h-14
q-57 -88 -155 -139t-222 -51q-150 0 -241 78.5t-91 222.5q0 166 134.5 250.5t437.5 113.5q79 8 115 35.5t36 85.5q0 85 -65.5 137.5t-182.5 52.5q-96 0 -159.5 -40t-88.5 -113q-9 -27 -36 -27h-107q-17 0 -25.5 8.5t-5.5 22.5q36 140 148.5 221.5t286.5 81.5zM813 543l-8 4
q-64 -29 -158 -37q-195 -22 -287 -72t-92 -143q0 -76 51.5 -117t143.5 -41q143 0 242.5 82.5t109.5 179.5z" />
    <glyph glyph-name="atilde" unicode="&#xe3;" horiz-adv-x="1148" 
d="M465 1511q36 0 67 -14t52 -33.5t39.5 -39.5t38 -34t38.5 -14q47 0 54 70q3 33 34 33h43q15 0 23.5 -9t7.5 -24q-5 -81 -44 -135t-118 -54q-41 0 -76 21.5t-55.5 46.5t-47.5 46.5t-54 21.5q-51 0 -59 -70q-3 -33 -35 -33h-45q-15 0 -23.5 9t-7.5 24q5 84 45.5 136
t122.5 52zM580 1112q192 0 300.5 -99t108.5 -272l6 -708q0 -33 -32 -33h-117q-15 0 -24 9t-9 24l2 139h-14q-57 -88 -155 -139t-222 -51q-150 0 -241 78.5t-91 222.5q0 166 134.5 250.5t437.5 113.5q79 8 115 35.5t36 85.5q0 85 -65.5 137.5t-182.5 52.5q-96 0 -159.5 -40
t-88.5 -113q-9 -27 -36 -27h-107q-17 0 -25.5 8.5t-5.5 22.5q36 140 148.5 221.5t286.5 81.5zM813 543l-8 4q-64 -29 -158 -37q-195 -22 -287 -72t-92 -143q0 -76 51.5 -117t143.5 -41q143 0 242.5 82.5t109.5 179.5z" />
    <glyph glyph-name="adieresis" unicode="&#xe4;" horiz-adv-x="1148" 
d="M510 1497v-139q0 -15 -9 -24t-24 -9h-94q-15 0 -24 9t-9 24v139q0 15 9 24t24 9h94q15 0 24 -9t9 -24zM807 1497v-139q0 -15 -9 -24t-24 -9h-94q-15 0 -24 9t-9 24v139q0 15 9 24t24 9h94q15 0 24 -9t9 -24zM580 1112q192 0 300.5 -99t108.5 -272l6 -708q0 -33 -32 -33
h-117q-15 0 -24 9t-9 24l2 139h-14q-57 -88 -155 -139t-222 -51q-150 0 -241 78.5t-91 222.5q0 166 134.5 250.5t437.5 113.5q79 8 115 35.5t36 85.5q0 85 -65.5 137.5t-182.5 52.5q-96 0 -159.5 -40t-88.5 -113q-9 -27 -36 -27h-107q-17 0 -25.5 8.5t-5.5 22.5
q36 140 148.5 221.5t286.5 81.5zM813 543l-8 4q-64 -29 -158 -37q-195 -22 -287 -72t-92 -143q0 -76 51.5 -117t143.5 -41q143 0 242.5 82.5t109.5 179.5z" />
    <glyph glyph-name="aring" unicode="&#xe5;" horiz-adv-x="1148" 
d="M567 1575q80 0 133.5 -51.5t53.5 -134.5q0 -82 -54 -133.5t-133 -51.5q-78 0 -131 51.5t-53 133.5q0 83 53 134.5t131 51.5zM567 1481q-38 0 -64 -25t-26 -67q0 -39 26.5 -65t63.5 -26q39 0 65.5 26t26.5 65q0 42 -26.5 67t-65.5 25zM580 1112q192 0 300.5 -99
t108.5 -272l6 -708q0 -33 -32 -33h-117q-15 0 -24 9t-9 24l2 139h-14q-57 -88 -155 -139t-222 -51q-150 0 -241 78.5t-91 222.5q0 166 134.5 250.5t437.5 113.5q79 8 115 35.5t36 85.5q0 85 -65.5 137.5t-182.5 52.5q-96 0 -159.5 -40t-88.5 -113q-9 -27 -36 -27h-107
q-17 0 -25.5 8.5t-5.5 22.5q36 140 148.5 221.5t286.5 81.5zM813 543l-8 4q-64 -29 -158 -37q-195 -22 -287 -72t-92 -143q0 -76 51.5 -117t143.5 -41q143 0 242.5 82.5t109.5 179.5z" />
    <glyph glyph-name="ae" unicode="&#xe6;" horiz-adv-x="1878" 
d="M1313 1110q211 0 332.5 -146t119.5 -372q0 -29 -2 -43q0 -31 -32 -31h-736q1 -177 90.5 -281t231.5 -104q88 0 146 35t104 111q11 22 39 22h104q19 0 26 -11t1 -28q-62 -140 -173 -214.5t-261 -74.5q-137 0 -246.5 69.5t-171.5 193.5h-11q-57 -116 -177.5 -184
t-272.5 -68q-151 0 -242 77.5t-92 221.5q0 95 42.5 163t130 111.5t208 67.5t289.5 34l53 5v104q0 86 -64.5 138t-181.5 52q-95 0 -159 -40t-91 -113q-9 -27 -36 -27h-105q-17 0 -25 10t-4 27q36 137 148 217t283 80q130 0 224 -46.5t142 -131.5q67 84 161.5 130t207.5 46z
M1006 659h575q0 124 -78 208.5t-205 84.5q-118 0 -193.5 -81.5t-98.5 -211.5zM815 528l-49 -4q-261 -15 -379.5 -68.5t-118.5 -160.5q0 -75 51 -115.5t144 -40.5q148 0 249 104t101 242z" />
    <glyph glyph-name="ccedilla" unicode="&#xe7;" horiz-adv-x="1089" 
d="M598 135q186 0 258 148q15 24 39 24h106q18 0 25.5 -10t1.5 -27q-45 -119 -151 -203t-259 -92l-30 -100q71 -13 115.5 -57.5t44.5 -116.5q0 -80 -55 -132t-154 -52q-72 0 -131 30q-29 13 -19 43l10 33q9 31 43 19q58 -23 97 -23t66.5 22.5t27.5 53.5q0 40 -33.5 65.5
t-103.5 26.5h-7q-38 0 -28 37l47 153q-193 28 -305.5 177t-112.5 376q0 264 137.5 423t362.5 159q171 0 288.5 -90.5t157.5 -222.5q4 -17 -3.5 -27t-24.5 -10h-107q-24 0 -39 24q-80 166 -270 166q-153 0 -238.5 -105.5t-85.5 -309.5q0 -197 86.5 -299.5t243.5 -102.5z" />
    <glyph glyph-name="egrave" unicode="&#xe8;" horiz-adv-x="1163" 
d="M373 1556h104q28 0 39 -22l143 -240q9 -17 3 -28t-25 -11h-45q-22 0 -41 19l-197 242q-13 17 -7.5 28.5t26.5 11.5zM606 1110q153 0 261.5 -75.5t158.5 -200.5t45 -283q-3 -33 -35 -33h-766q1 -179 92.5 -282t245.5 -103q174 0 262 146q11 22 39 22h105q18 0 25 -10.5
t1 -28.5q-61 -139 -177 -214t-269 -75q-223 0 -363.5 156.5t-140.5 407.5q0 256 143.5 414.5t372.5 158.5zM592 952q-130 0 -209 -81t-102 -212h608q-5 126 -84 209.5t-213 83.5z" />
    <glyph glyph-name="eacute" unicode="&#xe9;" horiz-adv-x="1163" 
d="M829 1516l-196 -242q-19 -19 -41 -19h-45q-20 0 -26 11t3 28l144 240q11 22 39 22h104q20 0 25.5 -11.5t-7.5 -28.5zM606 1110q153 0 261.5 -75.5t158.5 -200.5t45 -283q-3 -33 -35 -33h-766q1 -179 92.5 -282t245.5 -103q174 0 262 146q11 22 39 22h105q18 0 25 -10.5
t1 -28.5q-61 -139 -177 -214t-269 -75q-223 0 -363.5 156.5t-140.5 407.5q0 256 143.5 414.5t372.5 158.5zM592 952q-130 0 -209 -81t-102 -212h608q-5 126 -84 209.5t-213 83.5z" />
    <glyph glyph-name="ecircumflex" unicode="&#xea;" horiz-adv-x="1163" 
d="M842 1255h-88q-24 0 -39 21l-125 170h-17l-120 -170q-15 -21 -39 -21h-86q-22 0 -27.5 12t6.5 29l199 238q18 18 41 18h74q23 0 41 -18l200 -238q12 -17 6.5 -29t-26.5 -12zM606 1110q153 0 261.5 -75.5t158.5 -200.5t45 -283q-3 -33 -35 -33h-766q1 -179 92.5 -282
t245.5 -103q174 0 262 146q11 22 39 22h105q18 0 25 -10.5t1 -28.5q-61 -139 -177 -214t-269 -75q-223 0 -363.5 156.5t-140.5 407.5q0 256 143.5 414.5t372.5 158.5zM592 952q-130 0 -209 -81t-102 -212h608q-5 126 -84 209.5t-213 83.5z" />
    <glyph glyph-name="edieresis" unicode="&#xeb;" horiz-adv-x="1163" 
d="M524 1497v-139q0 -33 -32 -33h-95q-32 0 -32 33v139q0 33 32 33h95q32 0 32 -33zM821 1497v-139q0 -15 -9 -24t-24 -9h-94q-32 0 -32 33v139q0 33 32 33h94q15 0 24 -9t9 -24zM606 1110q153 0 261.5 -75.5t158.5 -200.5t45 -283q-3 -33 -35 -33h-766q1 -179 92.5 -282
t245.5 -103q174 0 262 146q11 22 39 22h105q18 0 25 -10.5t1 -28.5q-61 -139 -177 -214t-269 -75q-223 0 -363.5 156.5t-140.5 407.5q0 256 143.5 414.5t372.5 158.5zM592 952q-130 0 -209 -81t-102 -212h608q-5 126 -84 209.5t-213 83.5z" />
    <glyph glyph-name="igrave" unicode="&#xec;" horiz-adv-x="534" 
d="M57 1556h105q28 0 39 -22l143 -240q9 -17 3 -28t-25 -11h-46q-21 0 -40 19l-197 242q-13 17 -7.5 28.5t25.5 11.5zM354 1055l6 -1022q0 -33 -32 -33h-123q-15 0 -24 9t-9 24l8 1022q0 32 33 32h109q32 0 32 -32z" />
    <glyph glyph-name="iacute" unicode="&#xed;" horiz-adv-x="534" 
d="M514 1516l-197 -242q-19 -19 -41 -19h-45q-20 0 -25.5 11t3.5 28l143 240q11 22 39 22h105q20 0 25.5 -11.5t-7.5 -28.5zM354 1055l6 -1022q0 -33 -32 -33h-123q-15 0 -24 9t-9 24l8 1022q0 32 33 32h109q32 0 32 -32z" />
    <glyph glyph-name="icircumflex" unicode="&#xee;" horiz-adv-x="534" 
d="M526 1255h-88q-24 0 -39 21l-125 170h-16l-121 -170q-15 -21 -39 -21h-86q-21 0 -26.5 12t6.5 29l198 238q18 18 41 18h74q23 0 41 -18l201 -238q12 -17 6.5 -29t-27.5 -12zM354 1055l6 -1022q0 -33 -32 -33h-123q-15 0 -24 9t-9 24l8 1022q0 32 33 32h109q32 0 32 -32z
" />
    <glyph glyph-name="idieresis" unicode="&#xef;" horiz-adv-x="534" 
d="M209 1497v-139q0 -15 -9 -24t-24 -9h-94q-15 0 -24 9t-9 24v139q0 15 9 24t24 9h94q15 0 24 -9t9 -24zM506 1497v-139q0 -15 -9 -24t-24 -9h-94q-15 0 -24 9t-9 24v139q0 15 9 24t24 9h94q15 0 24 -9t9 -24zM354 1055l6 -1022q0 -33 -32 -33h-123q-15 0 -24 9t-9 24
l8 1022q0 32 33 32h109q32 0 32 -32z" />
    <glyph glyph-name="eth" unicode="&#xf0;" horiz-adv-x="1228" 
d="M887 1421l-109 -57q152 -139 230.5 -336.5t78.5 -439.5q0 -292 -135 -453.5t-364 -161.5q-153 0 -266.5 72t-172.5 198t-59 289q0 257 136.5 418.5t340.5 161.5q176 0 273 -123l10 6q-75 181 -215 293l-170 -90q-30 -13 -45 14l-17 33q-16 29 13 45l125 66
q-53 30 -111 57q-32 16 -14 45l45 70q16 25 45 12q102 -43 186 -104l146 77q30 13 45 -14l18 -35q14 -31 -14 -43zM592 135q142 0 232.5 110t90.5 302t-91.5 299.5t-231.5 107.5q-144 0 -234 -107.5t-90 -299.5q0 -191 90.5 -301.5t233.5 -110.5z" />
    <glyph glyph-name="ntilde" unicode="&#xf1;" horiz-adv-x="1189" 
d="M489 1511q36 0 67 -14t52.5 -33.5t40 -39.5t38 -34t38.5 -14q46 0 53 70q3 33 35 33h43q15 0 23.5 -9t7.5 -24q-5 -81 -44 -135t-118 -54q-41 0 -76 21.5t-55.5 46.5t-47.5 46.5t-54 21.5q-52 0 -60 -70q-3 -33 -35 -33h-45q-15 0 -23 9t-7 24q5 84 45 136t122 52z
M690 1112q159 0 253.5 -103.5t94.5 -291.5v-684q0 -33 -32 -33h-123q-15 0 -24 9t-9 24v639q0 132 -58 200t-163 68q-118 0 -196 -84.5t-95 -245.5l2 -577q0 -15 -9 -24t-24 -9h-123q-32 0 -32 33l8 1022q0 32 33 32h108q33 0 33 -32l2 -129l14 -2q132 188 340 188z" />
    <glyph glyph-name="ograve" unicode="&#xf2;" 
d="M393 1556h105q28 0 39 -22l143 -240q9 -17 2.5 -28t-25.5 -11h-45q-22 0 -41 19l-196 242q-13 17 -7.5 28.5t25.5 11.5zM612 1112q220 0 362 -154t142 -401q0 -167 -67 -300.5t-186 -208.5t-267 -75q-219 0 -362.5 159.5t-143.5 406.5q0 253 147.5 413t374.5 160z
M594 954q-144 0 -235 -108.5t-91 -290.5q0 -187 98.5 -303.5t245.5 -116.5q144 0 235 111t91 291q0 190 -97.5 303.5t-246.5 113.5z" />
    <glyph glyph-name="oacute" unicode="&#xf3;" 
d="M850 1516l-197 -242q-19 -19 -41 -19h-45q-20 0 -25.5 11t3.5 28l143 240q11 22 39 22h104q21 0 26.5 -11.5t-7.5 -28.5zM612 1112q220 0 362 -154t142 -401q0 -167 -67 -300.5t-186 -208.5t-267 -75q-219 0 -362.5 159.5t-143.5 406.5q0 253 147.5 413t374.5 160z
M594 954q-144 0 -235 -108.5t-91 -290.5q0 -187 98.5 -303.5t245.5 -116.5q144 0 235 111t91 291q0 190 -97.5 303.5t-246.5 113.5z" />
    <glyph glyph-name="ocircumflex" unicode="&#xf4;" 
d="M862 1255h-88q-24 0 -39 21l-125 170h-16l-121 -170q-15 -21 -39 -21h-86q-21 0 -26.5 12t6.5 29l198 238q18 18 41 18h74q23 0 41 -18l201 -238q12 -17 6.5 -29t-27.5 -12zM612 1112q220 0 362 -154t142 -401q0 -167 -67 -300.5t-186 -208.5t-267 -75
q-219 0 -362.5 159.5t-143.5 406.5q0 253 147.5 413t374.5 160zM594 954q-144 0 -235 -108.5t-91 -290.5q0 -187 98.5 -303.5t245.5 -116.5q144 0 235 111t91 291q0 190 -97.5 303.5t-246.5 113.5z" />
    <glyph glyph-name="otilde" unicode="&#xf5;" 
d="M502 1511q36 0 67 -14t52 -33.5t39.5 -39.5t38 -34t38.5 -14q47 0 54 70q3 33 34 33h43q15 0 23.5 -9t7.5 -24q-5 -81 -44 -135t-118 -54q-41 0 -76 21.5t-55.5 46.5t-47.5 46.5t-54 21.5q-52 0 -60 -70q-3 -33 -34 -33h-45q-15 0 -23.5 9t-7.5 24q5 84 45.5 136
t122.5 52zM612 1112q220 0 362 -154t142 -401q0 -167 -67 -300.5t-186 -208.5t-267 -75q-219 0 -362.5 159.5t-143.5 406.5q0 253 147.5 413t374.5 160zM594 954q-144 0 -235 -108.5t-91 -290.5q0 -187 98.5 -303.5t245.5 -116.5q144 0 235 111t91 291q0 190 -97.5 303.5
t-246.5 113.5z" />
    <glyph glyph-name="odieresis" unicode="&#xf6;" 
d="M545 1497v-139q0 -15 -9 -24t-24 -9h-94q-15 0 -24 9t-9 24v139q0 15 9 24t24 9h94q15 0 24 -9t9 -24zM842 1497v-139q0 -15 -9 -24t-24 -9h-94q-15 0 -24 9t-9 24v139q0 15 9 24t24 9h94q15 0 24 -9t9 -24zM612 1112q220 0 362 -154t142 -401q0 -167 -67 -300.5
t-186 -208.5t-267 -75q-219 0 -362.5 159.5t-143.5 406.5q0 253 147.5 413t374.5 160zM594 954q-144 0 -235 -108.5t-91 -290.5q0 -187 98.5 -303.5t245.5 -116.5q144 0 235 111t91 291q0 190 -97.5 303.5t-246.5 113.5z" />
    <glyph glyph-name="divide" unicode="&#xf7;" horiz-adv-x="1562" 
d="M860 1008v-150q0 -15 -9 -24t-24 -9h-137q-15 0 -24 9t-9 24v150q0 32 33 32h137q33 0 33 -32zM1317 596v-94q0 -15 -9 -24t-24 -9h-1005q-15 0 -24 9t-9 24v94q0 15 9 24t24 9h1005q15 0 24 -9t9 -24zM860 219v-147q0 -15 -9 -24t-24 -9h-137q-15 0 -24 9t-9 24v147
q0 15 9 24t24 9h137q15 0 24 -9t9 -24z" />
    <glyph glyph-name="oslash" unicode="&#xf8;" horiz-adv-x="1314" 
d="M1186 1047l-123 -142q100 -146 100 -348q0 -253 -148.5 -418.5t-371.5 -165.5q-166 0 -297 101l-47 -56q-18 -18 -41 -18h-115q-22 0 -27 12t9 29l119 137q-107 151 -107 361q0 253 147.5 413t374.5 160q173 0 306 -100l49 57q18 18 41 18h112q22 0 27.5 -11.5
t-8.5 -28.5zM315 555q0 -134 52 -233l483 557q-87 75 -209 75q-144 0 -235 -108.5t-91 -290.5zM983 537q0 131 -47 223l-477 -555q86 -70 200 -70q142 0 233 111t91 291z" />
    <glyph glyph-name="ugrave" unicode="&#xf9;" horiz-adv-x="1181" 
d="M379 1556h104q28 0 39 -22l144 -240q9 -17 2.5 -28t-25.5 -11h-45q-22 0 -41 19l-197 242q-13 17 -7.5 28.5t26.5 11.5zM1022 1055l6 -1022q0 -15 -9 -24t-24 -9h-121q-32 0 -32 33l2 129h-15q-129 -189 -335 -189q-159 0 -250.5 107t-91.5 307l4 668q0 32 32 32h109
q33 0 33 -32l4 -625q3 -285 217 -285q118 0 195.5 84t97.5 248l4 578q0 32 33 32h108q33 0 33 -32z" />
    <glyph glyph-name="uacute" unicode="&#xfa;" horiz-adv-x="1181" 
d="M834 1516l-197 -242q-19 -19 -41 -19h-45q-20 0 -26 11t3 28l144 240q11 22 39 22h104q21 0 26.5 -11.5t-7.5 -28.5zM1022 1055l6 -1022q0 -15 -9 -24t-24 -9h-121q-32 0 -32 33l2 129h-15q-129 -189 -335 -189q-159 0 -250.5 107t-91.5 307l4 668q0 32 32 32h109
q33 0 33 -32l4 -625q3 -285 217 -285q118 0 195.5 84t97.5 248l4 578q0 32 33 32h108q33 0 33 -32z" />
    <glyph glyph-name="ucircumflex" unicode="&#xfb;" horiz-adv-x="1181" 
d="M848 1255h-88q-24 0 -39 21l-125 170h-16l-121 -170q-15 -21 -39 -21h-86q-22 0 -27.5 12t6.5 29l199 238q18 18 41 18h74q23 0 41 -18l200 -238q12 -17 6.5 -29t-26.5 -12zM1022 1055l6 -1022q0 -15 -9 -24t-24 -9h-121q-32 0 -32 33l2 129h-15q-129 -189 -335 -189
q-159 0 -250.5 107t-91.5 307l4 668q0 32 32 32h109q33 0 33 -32l4 -625q3 -285 217 -285q118 0 195.5 84t97.5 248l4 578q0 32 33 32h108q33 0 33 -32z" />
    <glyph glyph-name="udieresis" unicode="&#xfc;" horiz-adv-x="1181" 
d="M530 1497v-139q0 -33 -32 -33h-95q-32 0 -32 33v139q0 33 32 33h95q32 0 32 -33zM827 1497v-139q0 -33 -32 -33h-95q-32 0 -32 33v139q0 33 32 33h95q32 0 32 -33zM1022 1055l6 -1022q0 -15 -9 -24t-24 -9h-121q-32 0 -32 33l2 129h-15q-129 -189 -335 -189
q-159 0 -250.5 107t-91.5 307l4 668q0 32 32 32h109q33 0 33 -32l4 -625q3 -285 217 -285q118 0 195.5 84t97.5 248l4 578q0 32 33 32h108q33 0 33 -32z" />
    <glyph glyph-name="yacute" unicode="&#xfd;" horiz-adv-x="1075" 
d="M786 1516l-196 -242q-19 -19 -41 -19h-45q-20 0 -26 11t3 28l144 240q11 22 39 22h104q20 0 25.5 -11.5t-7.5 -28.5zM887 1087h104q36 0 27 -36l-516 -1475q-12 -27 -39 -27h-123q-19 0 -26 10t-1 27l131 367l-389 1098q-9 36 27 36h106q28 0 37 -26l297 -860h15l311 860
q12 26 39 26z" />
    <glyph glyph-name="thorn" unicode="&#xfe;" horiz-adv-x="1245" 
d="M698 1112q203 0 330 -156.5t127 -402.5q0 -257 -137 -418.5t-352 -161.5q-190 0 -318 131h-10l2 -522q0 -15 -9 -24t-24 -9h-123q-32 0 -32 33l8 1505v408q0 15 9 24t24 9h110q15 0 24 -9t9 -24v-565h12q58 90 151 136t199 46zM653 133q151 0 236.5 108.5t85.5 297.5
q0 192 -89 303.5t-235 111.5q-130 0 -221 -93t-104 -257v-137q14 -162 104 -248t223 -86z" />
    <glyph glyph-name="ydieresis" unicode="&#xff;" horiz-adv-x="1075" 
d="M481 1497v-139q0 -33 -32 -33h-95q-32 0 -32 33v139q0 33 32 33h95q32 0 32 -33zM778 1497v-139q0 -15 -9 -24t-24 -9h-94q-15 0 -24 9t-9 24v139q0 15 9 24t24 9h94q15 0 24 -9t9 -24zM887 1087h104q36 0 27 -36l-516 -1475q-12 -27 -39 -27h-123q-19 0 -26 10t-1 27
l131 367l-389 1098q-9 36 27 36h106q28 0 37 -26l297 -860h15l311 860q12 26 39 26z" />
    <glyph glyph-name="Amacron" unicode="&#x100;" horiz-adv-x="1363" 
d="M915 1853v-69q0 -33 -32 -33h-402q-32 0 -32 33v69q0 33 32 33h402q32 0 32 -33zM979 461h-592l-156 -434q-12 -27 -38 -27h-119q-19 0 -26 10t-1 27l526 1425q12 27 39 27h142q30 0 39 -27l526 -1425q6 -17 -1 -27t-26 -10h-118q-27 0 -39 27zM920 625l-232 643h-10
l-232 -643h474z" />
    <glyph glyph-name="amacron" unicode="&#x101;" horiz-adv-x="1148" 
d="M803 1450v-70q0 -32 -33 -32h-401q-33 0 -33 32v70q0 15 9 24t24 9h401q15 0 24 -9t9 -24zM580 1112q192 0 300.5 -99t108.5 -272l6 -708q0 -33 -32 -33h-117q-15 0 -24 9t-9 24l2 139h-14q-57 -88 -155 -139t-222 -51q-150 0 -241 78.5t-91 222.5q0 166 134.5 250.5
t437.5 113.5q79 8 115 35.5t36 85.5q0 85 -65.5 137.5t-182.5 52.5q-96 0 -159.5 -40t-88.5 -113q-9 -27 -36 -27h-107q-17 0 -25.5 8.5t-5.5 22.5q36 140 148.5 221.5t286.5 81.5zM813 543l-8 4q-64 -29 -158 -37q-195 -22 -287 -72t-92 -143q0 -76 51.5 -117t143.5 -41
q143 0 242.5 82.5t109.5 179.5z" />
    <glyph glyph-name="Abreve" unicode="&#x102;" horiz-adv-x="1363" 
d="M680 1624q-121 0 -193.5 65.5t-72.5 194.5q0 31 32 31h66q33 0 33 -31q0 -72 37 -107.5t98 -35.5q62 0 99.5 35.5t37.5 107.5q0 31 33 31h68q32 0 32 -31q0 -129 -74 -194.5t-196 -65.5zM979 461h-592l-156 -434q-12 -27 -38 -27h-119q-19 0 -26 10t-1 27l526 1425
q12 27 39 27h142q30 0 39 -27l526 -1425q6 -17 -1 -27t-26 -10h-118q-27 0 -39 27zM920 625l-232 643h-10l-232 -643h474z" />
    <glyph glyph-name="abreve" unicode="&#x103;" horiz-adv-x="1148" 
d="M836 1481q0 -129 -74 -194.5t-197 -65.5q-121 0 -193.5 65.5t-72.5 194.5q0 30 33 30h65q33 0 33 -30q0 -72 37.5 -108t97.5 -36q62 0 99.5 36t37.5 108q0 30 33 30h68q33 0 33 -30zM580 1112q192 0 300.5 -99t108.5 -272l6 -708q0 -33 -32 -33h-117q-15 0 -24 9t-9 24
l2 139h-14q-57 -88 -155 -139t-222 -51q-150 0 -241 78.5t-91 222.5q0 166 134.5 250.5t437.5 113.5q79 8 115 35.5t36 85.5q0 85 -65.5 137.5t-182.5 52.5q-96 0 -159.5 -40t-88.5 -113q-9 -27 -36 -27h-107q-17 0 -25.5 8.5t-5.5 22.5q36 140 148.5 221.5t286.5 81.5z
M813 543l-8 4q-64 -29 -158 -37q-195 -22 -287 -72t-92 -143q0 -76 51.5 -117t143.5 -41q143 0 242.5 82.5t109.5 179.5z" />
    <glyph glyph-name="Aogonek" unicode="&#x104;" horiz-adv-x="1363" 
d="M1331 0q-7 0 -22 -10q-226 -131 -226 -238q0 -82 115 -82q44 0 88 8q35 3 35 -30v-62q0 -28 -29 -37q-55 -10 -102 -10q-111 0 -173.5 56t-62.5 151q0 150 179 287l-154 428h-592l-156 -434q-12 -27 -38 -27h-119q-19 0 -26 10t-1 27l526 1425q12 27 39 27h142
q30 0 39 -27l528 -1427q7 -19 9 -27t1 -8zM920 625l-232 643h-10l-232 -643h474z" />
    <glyph glyph-name="aogonek" unicode="&#x105;" horiz-adv-x="1148" 
d="M985 0q-244 -135 -244 -248q0 -82 115 -82q44 0 88 8q35 3 35 -30v-62q0 -28 -29 -37q-55 -10 -102 -10q-111 0 -173.5 56t-62.5 151q0 160 201 303l2 123h-14q-57 -88 -155 -139t-222 -51q-150 0 -241 78.5t-91 222.5q0 166 134.5 250.5t437.5 113.5q79 8 115 35.5
t36 85.5q0 85 -65.5 137.5t-182.5 52.5q-96 0 -159.5 -40t-88.5 -113q-9 -27 -36 -27h-107q-17 0 -25 10t-4 27q36 137 149 217t284 80q192 0 300.5 -99t108.5 -272l6 -708q0 -33 -10 -33zM463 137q143 0 242.5 82.5t109.5 179.5l-2 144l-8 4q-64 -29 -158 -37
q-195 -22 -287 -72t-92 -143q0 -76 51.5 -117t143.5 -41z" />
    <glyph glyph-name="Cacute" unicode="&#x106;" horiz-adv-x="1519" 
d="M1006 1917l-197 -242q-18 -18 -41 -18h-45q-20 0 -26 11t3 28l144 239q12 23 39 23h104q21 0 26.5 -12t-7.5 -29zM795 1513q211 0 372 -108t234 -301q6 -17 -1.5 -27t-25.5 -10l-110 -2q-26 0 -39 25q-71 127 -185 195.5t-256 68.5q-225 0 -367.5 -160t-142.5 -438
q0 -282 146 -451.5t383 -169.5q308 0 436 291q13 25 37 25l108 -2q19 0 26 -10t1 -27q-31 -88 -85 -165t-130.5 -139.5t-182 -98.5t-227.5 -36q-204 0 -362 98t-244 272.5t-86 397.5q0 225 91.5 402t251 273.5t358.5 96.5z" />
    <glyph glyph-name="cacute" unicode="&#x107;" horiz-adv-x="1089" 
d="M817 1516l-196 -242q-19 -19 -41 -19h-45q-20 0 -26 11t3 28l143 240q11 22 39 22h105q20 0 25.5 -11.5t-7.5 -28.5zM590 1112q171 0 288.5 -90.5t157.5 -222.5q4 -17 -3.5 -27t-24.5 -10h-107q-24 0 -39 24q-80 166 -270 166q-153 0 -238.5 -105.5t-85.5 -309.5
q0 -197 86.5 -299.5t243.5 -102.5q186 0 258 148q15 24 39 24h106q18 0 25.5 -10t1.5 -27q-47 -127 -161.5 -212t-282.5 -85q-225 0 -359.5 153.5t-134.5 403.5q0 264 137.5 423t362.5 159z" />
    <glyph glyph-name="Cdotaccent" unicode="&#x10a;" horiz-adv-x="1519" 
d="M848 1896v-139q0 -15 -9 -24t-24 -9h-108q-15 0 -24 9t-9 24v139q0 15 9 24t24 9h108q15 0 24 -9t9 -24zM795 1513q211 0 372 -108t234 -301q6 -17 -1.5 -27t-25.5 -10l-110 -2q-26 0 -39 25q-71 127 -185 195.5t-256 68.5q-225 0 -367.5 -160t-142.5 -438
q0 -282 146 -451.5t383 -169.5q308 0 436 291q13 25 37 25l108 -2q19 0 26 -10t1 -27q-31 -88 -85 -165t-130.5 -139.5t-182 -98.5t-227.5 -36q-204 0 -362 98t-244 272.5t-86 397.5q0 225 91.5 402t251 273.5t358.5 96.5z" />
    <glyph glyph-name="cdotaccent" unicode="&#x10b;" horiz-adv-x="1089" 
d="M662 1495v-139q0 -15 -9 -24t-24 -9h-109q-15 0 -24 9t-9 24v139q0 15 9 24t24 9h109q15 0 24 -9t9 -24zM590 1112q171 0 288.5 -90.5t157.5 -222.5q4 -17 -3.5 -27t-24.5 -10h-107q-24 0 -39 24q-80 166 -270 166q-153 0 -238.5 -105.5t-85.5 -309.5q0 -197 86.5 -299.5
t243.5 -102.5q186 0 258 148q15 24 39 24h106q18 0 25.5 -10t1.5 -27q-47 -127 -161.5 -212t-282.5 -85q-225 0 -359.5 153.5t-134.5 403.5q0 264 137.5 423t362.5 159z" />
    <glyph glyph-name="Ccaron" unicode="&#x10c;" horiz-adv-x="1519" 
d="M500 1954h88q24 0 39 -21l125 -170h16l121 170q15 21 39 21h86q21 0 26.5 -12t-6.5 -29l-198 -238q-18 -18 -41 -18h-74q-23 0 -41 18l-201 238q-12 17 -6.5 29t27.5 12zM795 1513q211 0 372 -108t234 -301q6 -17 -1.5 -27t-25.5 -10l-110 -2q-26 0 -39 25
q-71 127 -185 195.5t-256 68.5q-225 0 -367.5 -160t-142.5 -438q0 -282 146 -451.5t383 -169.5q308 0 436 291q13 25 37 25l108 -2q19 0 26 -10t1 -27q-31 -88 -85 -165t-130.5 -139.5t-182 -98.5t-227.5 -36q-204 0 -362 98t-244 272.5t-86 397.5q0 225 91.5 402t251 273.5
t358.5 96.5z" />
    <glyph glyph-name="ccaron" unicode="&#x10d;" horiz-adv-x="1089" 
d="M313 1552h88q25 0 39 -20l125 -170h17l120 170q14 20 39 20h86q22 0 27.5 -12t-6.5 -29l-199 -237q-19 -19 -41 -19h-73q-22 0 -41 19l-201 237q-12 17 -6.5 29t26.5 12zM590 1112q171 0 288.5 -90.5t157.5 -222.5q4 -17 -3.5 -27t-24.5 -10h-107q-24 0 -39 24
q-80 166 -270 166q-153 0 -238.5 -105.5t-85.5 -309.5q0 -197 86.5 -299.5t243.5 -102.5q186 0 258 148q15 24 39 24h106q18 0 25.5 -10t1.5 -27q-47 -127 -161.5 -212t-282.5 -85q-225 0 -359.5 153.5t-134.5 403.5q0 264 137.5 423t362.5 159z" />
    <glyph glyph-name="Dcaron" unicode="&#x10e;" horiz-adv-x="1482" 
d="M686 1657h-74q-23 0 -41 18l-200 238q-12 17 -6.5 29t26.5 12h88q24 0 39 -21l125 -170h16l121 170q15 21 39 21h86q22 0 27.5 -12t-6.5 -29l-199 -238q-18 -18 -41 -18zM188 1489h494q338 0 522.5 -195.5t184.5 -527.5q0 -166 -47 -305.5t-135.5 -242.5t-224 -160.5
t-304.5 -57.5h-498q-15 0 -24 9t-9 24l9 1423q0 33 32 33zM340 162h326q253 0 397.5 156.5t144.5 426.5q0 277 -143 430.5t-397 153.5h-334z" />
    <glyph glyph-name="dcaron" unicode="&#x10f;" horiz-adv-x="1243" 
d="M1085 1495l7 -1462q0 -15 -9 -24t-24 -9h-123q-15 0 -24 9t-9 24v121h-12q-54 -88 -146 -134.5t-198 -46.5q-203 0 -330 156.5t-127 402.5q0 260 140.5 420t365.5 160q185 0 303 -133h10v516q0 15 9 24t24 9h111q32 0 32 -33zM1378 1493l-47 -285q-3 -30 -35 -30h-49
q-33 0 -30 34l28 285q0 31 33 31h72q34 0 28 -35zM592 954q-152 0 -238 -109.5t-86 -297.5q0 -192 89.5 -302t236.5 -110q130 0 221 91t103 253v137q-14 164 -104 251t-222 87z" />
    <glyph glyph-name="Dcroat" unicode="&#x110;" horiz-adv-x="1482" 
d="M188 1489h494q338 0 522.5 -195.5t184.5 -527.5q0 -166 -47 -305.5t-135.5 -242.5t-224 -160.5t-304.5 -57.5h-498q-15 0 -24 9t-9 24l3 467h-111q-33 0 -33 32v93q0 32 33 32h113l4 799q0 33 32 33zM340 162h326q253 0 397.5 156.5t144.5 426.5q0 277 -143 430.5
t-397 153.5h-334l4 -672h350q33 0 33 -32v-93q0 -32 -33 -32h-350z" />
    <glyph glyph-name="dcroat" unicode="&#x111;" horiz-adv-x="1243" 
d="M1274 1399v-60q0 -32 -33 -32h-156l7 -1274q0 -15 -9 -24t-24 -9h-123q-15 0 -24 9t-9 24v121h-12q-54 -88 -146 -134.5t-198 -46.5q-203 0 -330 156.5t-127 402.5q0 260 140.5 420t365.5 160q185 0 303 -133h10v328h-299q-32 0 -32 32v60q0 33 32 33h299v63q0 15 9 24
t24 9h111q32 0 32 -33v-63h156q15 0 24 -9t9 -24zM918 479v137q-14 164 -104 251t-222 87q-152 0 -238 -109.5t-86 -297.5q0 -192 89.5 -302t236.5 -110q130 0 221 91t103 253z" />
    <glyph glyph-name="Emacron" unicode="&#x112;" 
d="M850 1853v-69q0 -15 -9 -24t-24 -9h-401q-15 0 -24 9t-9 24v69q0 15 9 24t24 9h401q15 0 24 -9t9 -24zM342 164h739q15 0 24 -9t9 -24v-98q0 -15 -9 -24t-24 -9h-901q-15 0 -24 9t-9 24l9 1423q0 33 32 33h891q15 0 24 -9t9 -24v-98q0 -15 -9 -24t-24 -9h-745l4 -463h637
q15 0 24 -9t9 -24v-100q0 -15 -9 -24t-24 -9h-637z" />
    <glyph glyph-name="emacron" unicode="&#x113;" horiz-adv-x="1163" 
d="M817 1450v-70q0 -32 -33 -32h-401q-33 0 -33 32v70q0 15 9 24t24 9h401q15 0 24 -9t9 -24zM606 1110q153 0 261.5 -75.5t158.5 -200.5t45 -283q-3 -33 -35 -33h-766q1 -179 92.5 -282t245.5 -103q174 0 262 146q11 22 39 22h105q18 0 25 -10.5t1 -28.5
q-61 -139 -177 -214t-269 -75q-223 0 -363.5 156.5t-140.5 407.5q0 256 143.5 414.5t372.5 158.5zM592 952q-130 0 -209 -81t-102 -212h608q-5 126 -84 209.5t-213 83.5z" />
    <glyph glyph-name="Edotaccent" unicode="&#x116;" 
d="M702 1898v-139q0 -33 -32 -33h-109q-15 0 -24 9t-9 24v139q0 15 9 24t24 9h109q32 0 32 -33zM342 164h739q15 0 24 -9t9 -24v-98q0 -15 -9 -24t-24 -9h-901q-15 0 -24 9t-9 24l9 1423q0 33 32 33h891q15 0 24 -9t9 -24v-98q0 -15 -9 -24t-24 -9h-745l4 -463h637
q15 0 24 -9t9 -24v-100q0 -15 -9 -24t-24 -9h-637z" />
    <glyph glyph-name="edotaccent" unicode="&#x117;" horiz-adv-x="1163" 
d="M672 1495v-139q0 -15 -9 -24t-24 -9h-109q-32 0 -32 33v139q0 33 32 33h109q15 0 24 -9t9 -24zM606 1110q153 0 261.5 -75.5t158.5 -200.5t45 -283q-3 -33 -35 -33h-766q1 -179 92.5 -282t245.5 -103q174 0 262 146q11 22 39 22h105q18 0 25 -10.5t1 -28.5
q-61 -139 -177 -214t-269 -75q-223 0 -363.5 156.5t-140.5 407.5q0 256 143.5 414.5t372.5 158.5zM592 952q-130 0 -209 -81t-102 -212h608q-5 126 -84 209.5t-213 83.5z" />
    <glyph glyph-name="Eogonek" unicode="&#x118;" 
d="M342 164h739q15 0 24 -9t9 -24v-98q0 -13 -2 -17q0 -3 -1 -5.5t-3 -4.5t-3 -3.5t-4 -3.5l-4.5 -3t-5.5 -3l-6 -3q-225 -129 -225 -238q0 -82 115 -82q44 0 88 8q35 3 35 -30v-62q0 -28 -29 -37q-55 -10 -102 -10q-111 0 -173.5 56t-62.5 151q0 133 137 254h-688
q-15 0 -24 9t-9 24l9 1423q0 33 32 33h891q15 0 24 -9t9 -24v-98q0 -15 -9 -24t-24 -9h-745l4 -463h637q15 0 24 -9t9 -24v-100q0 -15 -9 -24t-24 -9h-637z" />
    <glyph glyph-name="eogonek" unicode="&#x119;" horiz-adv-x="1163" 
d="M606 1110q153 0 261.5 -75.5t158.5 -200.5t45 -283q-3 -33 -35 -33h-766q1 -179 92.5 -282t245.5 -103q174 0 262 146q11 22 39 22h105q18 0 25 -10.5t1 -28.5q-45 -104 -122 -172t-177 -96q-221 -129 -221 -236q0 -82 115 -82q39 0 88 9q35 3 35 -31v-62q0 -27 -29 -36
q-61 -11 -102 -11q-111 0 -173.5 56t-62.5 151q0 119 111 230q-186 31 -299 181t-113 374q0 256 143.5 414.5t372.5 158.5zM281 659h608q-5 126 -84 209.5t-213 83.5q-130 0 -209 -81t-102 -212z" />
    <glyph glyph-name="Ecaron" unicode="&#x11a;" 
d="M651 1659h-73q-23 0 -41 18l-201 238q-12 17 -6.5 29t26.5 12h88q24 0 39 -21l125 -170h17l120 170q15 21 39 21h86q22 0 27.5 -12t-6.5 -29l-199 -238q-18 -18 -41 -18zM342 164h739q15 0 24 -9t9 -24v-98q0 -15 -9 -24t-24 -9h-901q-15 0 -24 9t-9 24l9 1423
q0 33 32 33h891q15 0 24 -9t9 -24v-98q0 -15 -9 -24t-24 -9h-745l4 -463h637q15 0 24 -9t9 -24v-100q0 -15 -9 -24t-24 -9h-637z" />
    <glyph glyph-name="ecaron" unicode="&#x11b;" horiz-adv-x="1163" 
d="M324 1552h88q25 0 39 -20l124 -170h17l121 170q14 20 39 20h86q21 0 26.5 -12t-6.5 -29l-199 -237q-19 -19 -41 -19h-73q-22 0 -41 19l-201 237q-12 17 -6.5 29t27.5 12zM606 1110q153 0 261.5 -75.5t158.5 -200.5t45 -283q-3 -33 -35 -33h-766q1 -179 92.5 -282
t245.5 -103q174 0 262 146q11 22 39 22h105q18 0 25 -10.5t1 -28.5q-61 -139 -177 -214t-269 -75q-223 0 -363.5 156.5t-140.5 407.5q0 256 143.5 414.5t372.5 158.5zM592 952q-130 0 -209 -81t-102 -212h608q-5 126 -84 209.5t-213 83.5z" />
    <glyph glyph-name="Gbreve" unicode="&#x11e;" horiz-adv-x="1587" 
d="M795 1622q-121 0 -194 65.5t-73 194.5q0 31 33 31h66q32 0 32 -31q0 -72 37.5 -107.5t98.5 -35.5q62 0 99.5 35.5t37.5 107.5q0 31 33 31h67q33 0 33 -31q0 -129 -74 -194.5t-196 -65.5zM918 721h524q35 0 35 -39q-3 -154 -54 -285t-140.5 -224.5t-217.5 -146.5t-279 -53
q-197 0 -352.5 98t-242.5 273.5t-87 398.5q0 224 91.5 400t251.5 273t360 97q209 0 370 -105.5t230 -285.5q7 -17 0 -27t-25 -10l-110 -2q-28 0 -39 23q-69 118 -183.5 183t-254.5 65q-109 0 -202.5 -40.5t-161.5 -116t-107 -189t-39 -252.5q0 -282 146 -451.5t382 -169.5
q117 0 216.5 48.5t169.5 145t93 228.5h-374q-15 0 -24 9t-9 24v98q0 15 9 24t24 9z" />
    <glyph glyph-name="gbreve" unicode="&#x11f;" horiz-adv-x="1247" 
d="M885 1481q0 -129 -74 -194.5t-197 -65.5q-121 0 -193.5 65.5t-72.5 194.5q0 30 33 30h65q33 0 33 -30q0 -72 37.5 -108t97.5 -36q62 0 100 36t38 108q0 30 32 30h68q33 0 33 -30zM547 1112q108 0 199 -47.5t149 -136.5l12 2l2 125q0 32 33 32h111q32 0 32 -32l11 -920
q3 -300 -130.5 -456t-367.5 -156q-155 0 -265.5 69.5t-170.5 198.5q-8 17 -1.5 28t25.5 11h109q27 0 41 -23q82 -124 262 -124q311 0 305 397v55h-10q-114 -135 -299 -135q-224 0 -364 152.5t-140 404.5q0 240 127.5 397.5t329.5 157.5zM594 954q-146 0 -236 -112t-90 -301
q0 -181 85.5 -281t238.5 -100q132 0 222 78t104 227v137q-12 164 -103.5 258t-220.5 94z" />
    <glyph glyph-name="Gdotaccent" unicode="&#x120;" horiz-adv-x="1587" 
d="M885 1896v-139q0 -15 -9 -24t-24 -9h-109q-32 0 -32 33v139q0 33 32 33h109q15 0 24 -9t9 -24zM918 721h524q35 0 35 -39q-3 -154 -54 -285t-140.5 -224.5t-217.5 -146.5t-279 -53q-197 0 -352.5 98t-242.5 273.5t-87 398.5q0 224 91.5 400t251.5 273t360 97
q209 0 370 -105.5t230 -285.5q7 -17 0 -27t-25 -10l-110 -2q-28 0 -39 23q-69 118 -183.5 183t-254.5 65q-109 0 -202.5 -40.5t-161.5 -116t-107 -189t-39 -252.5q0 -282 146 -451.5t382 -169.5q117 0 216.5 48.5t169.5 145t93 228.5h-374q-15 0 -24 9t-9 24v98q0 15 9 24
t24 9z" />
    <glyph glyph-name="gdotaccent" unicode="&#x121;" horiz-adv-x="1247" 
d="M705 1495v-139q0 -15 -9 -24t-24 -9h-109q-15 0 -24 9t-9 24v139q0 15 9 24t24 9h109q15 0 24 -9t9 -24zM547 1112q108 0 199 -47.5t149 -136.5l12 2l2 125q0 32 33 32h111q32 0 32 -32l11 -920q3 -300 -130.5 -456t-367.5 -156q-155 0 -265.5 69.5t-170.5 198.5
q-8 17 -1.5 28t25.5 11h109q27 0 41 -23q82 -124 262 -124q311 0 305 397v55h-10q-114 -135 -299 -135q-224 0 -364 152.5t-140 404.5q0 240 127.5 397.5t329.5 157.5zM594 954q-146 0 -236 -112t-90 -301q0 -181 85.5 -281t238.5 -100q132 0 222 78t104 227v137
q-12 164 -103.5 258t-220.5 94z" />
    <glyph glyph-name="Gcommaaccent" unicode="&#x122;" horiz-adv-x="1587" 
d="M918 721h524q35 0 35 -39q-3 -154 -54 -285t-140.5 -224.5t-217.5 -146.5t-279 -53q-197 0 -352.5 98t-242.5 273.5t-87 398.5q0 224 91.5 400t251.5 273t360 97q209 0 370 -105.5t230 -285.5q7 -17 0 -27t-25 -10l-110 -2q-28 0 -39 23q-69 118 -183.5 183t-254.5 65
q-109 0 -202.5 -40.5t-161.5 -116t-107 -189t-39 -252.5q0 -282 146 -451.5t382 -169.5q117 0 216.5 48.5t169.5 145t93 228.5h-374q-15 0 -24 9t-9 24v98q0 15 9 24t24 9zM715 -291v96q0 15 9 24t24 9h96q15 0 24 -9t9 -24v-73q0 -175 -107 -262q-20 -17 -45 -5
q-28 19 -4 46q36 44 40.5 86.5t-26.5 72.5q-20 20 -20 39z" />
    <glyph glyph-name="gcommaaccent" unicode="&#x123;" horiz-adv-x="1247" 
d="M535 1282v74q0 176 106 262q20 17 45 4q28 -18 4 -45q-36 -44 -40.5 -87t26.5 -73q20 -20 20 -39v-96q0 -33 -32 -33h-97q-32 0 -32 33zM547 1112q108 0 199 -47.5t149 -136.5l12 2l2 125q0 32 33 32h111q32 0 32 -32l11 -920q3 -300 -130.5 -456t-367.5 -156
q-155 0 -265.5 69.5t-170.5 198.5q-8 17 -1.5 28t25.5 11h109q27 0 41 -23q82 -124 262 -124q311 0 305 397v55h-10q-114 -135 -299 -135q-224 0 -364 152.5t-140 404.5q0 240 127.5 397.5t329.5 157.5zM594 954q-146 0 -236 -112t-90 -301q0 -181 85.5 -281t238.5 -100
q132 0 222 78t104 227v137q-12 164 -103.5 258t-220.5 94z" />
    <glyph glyph-name="Hbar" unicode="&#x126;" horiz-adv-x="1488" 
d="M1511 1202v-59q0 -33 -32 -33h-144l4 -1077q0 -33 -32 -33h-127q-15 0 -24 9t-9 24l2 663h-811l2 -663q0 -15 -9 -24t-24 -9h-127q-15 0 -24 9t-9 24l7 1077h-142q-32 0 -32 33v59q0 33 32 33h142l2 221q0 33 32 33h113q15 0 24 -9t9 -24l2 -221h815l2 221q0 15 9 24
t24 9h114q15 0 24 -9t9 -24l2 -221h144q32 0 32 -33zM1151 1110h-815v-248h815v248z" />
    <glyph glyph-name="hbar" unicode="&#x127;" horiz-adv-x="1183" 
d="M999 0h-122q-15 0 -24 9t-9 24l4 639q0 128 -57 194t-162 66q-117 0 -195.5 -83t-95.5 -239l2 -577q0 -15 -9 -24t-24 -9h-123q-32 0 -32 33l6 1186h-156q-33 0 -33 32v49q0 15 9 24t24 9h156l2 162q0 15 9 24t24 9h108q15 0 24 -9t9 -24l2 -162h297q15 0 24 -9t9 -24
v-49q0 -32 -33 -32h-297l2 -293l14 -2q130 180 336 180q156 0 247.5 -101.5t92.5 -285.5l4 -684q0 -15 -9 -24t-24 -9z" />
    <glyph glyph-name="Itilde" unicode="&#x128;" horiz-adv-x="735" 
d="M264 1915q36 0 67 -14t52.5 -33.5t40 -39.5t38 -34t38.5 -14q46 0 53 69q3 33 35 33h43q15 0 23.5 -9t7.5 -24q-5 -81 -44 -134.5t-118 -53.5q-33 0 -62 14t-49.5 33.5t-39 39.5t-40 34t-43.5 14q-51 0 -59 -70q-3 -32 -35 -32h-45q-15 0 -23.5 8.5t-7.5 23.5
q5 84 45.5 136.5t122.5 52.5zM457 1456l8 -1423q0 -15 -9 -24t-24 -9h-127q-15 0 -24 9t-9 24l7 1423q0 33 32 33h113q15 0 24 -9t9 -24z" />
    <glyph glyph-name="itilde" unicode="&#x129;" horiz-adv-x="534" 
d="M166 1511q36 0 67 -14t52 -33.5t39.5 -39.5t38 -34t38.5 -14q47 0 54 70q3 33 34 33h43q15 0 23.5 -9t7.5 -24q-5 -81 -44 -135t-118 -54q-41 0 -76 21.5t-55.5 46.5t-47.5 46.5t-54 21.5q-51 0 -59 -70q-3 -33 -35 -33h-45q-15 0 -23.5 9t-7.5 24q5 84 45.5 136
t122.5 52zM354 1055l6 -1022q0 -33 -32 -33h-123q-15 0 -24 9t-9 24l8 1022q0 32 33 32h109q32 0 32 -32z" />
    <glyph glyph-name="Imacron" unicode="&#x12a;" horiz-adv-x="735" 
d="M602 1853v-69q0 -15 -9 -24t-24 -9h-401q-15 0 -24 9t-9 24v69q0 15 9 24t24 9h401q15 0 24 -9t9 -24zM457 1456l8 -1423q0 -15 -9 -24t-24 -9h-127q-15 0 -24 9t-9 24l7 1423q0 33 32 33h113q15 0 24 -9t9 -24z" />
    <glyph glyph-name="imacron" unicode="&#x12b;" horiz-adv-x="534" 
d="M502 1450v-70q0 -32 -33 -32h-401q-33 0 -33 32v70q0 15 9 24t24 9h401q15 0 24 -9t9 -24zM354 1055l6 -1022q0 -33 -32 -33h-123q-15 0 -24 9t-9 24l8 1022q0 32 33 32h109q32 0 32 -32z" />
    <glyph glyph-name="Iogonek" unicode="&#x12e;" horiz-adv-x="735" 
d="M221 -248q0 -82 115 -82q44 0 88 8q35 3 35 -30v-62q0 -28 -29 -37q-55 -10 -102 -10q-111 0 -173.5 56t-62.5 151q0 154 180 289l7 1421q0 33 32 33h113q15 0 24 -9t9 -24l8 -1429q0 -26 -49 -56q-195 -119 -195 -219z" />
    <glyph glyph-name="iogonek" unicode="&#x12f;" horiz-adv-x="534" 
d="M356 1495v-139q0 -33 -32 -33h-109q-15 0 -24 9t-9 24v139q0 15 9 24t24 9h109q32 0 32 -33zM119 -248q0 -82 114 -82q45 0 89 8q34 3 34 -30v-62q0 -29 -28 -37q-55 -10 -103 -10q-111 0 -173 56t-62 151q0 153 182 291l8 1018q0 32 33 32h109q32 0 32 -32l6 -1051
q1 -1 -1 -2.5t-7.5 -5t-11.5 -7.5t-16.5 -10.5t-20.5 -13.5q-184 -114 -184 -213z" />
    <glyph glyph-name="Idotaccent" unicode="&#x130;" horiz-adv-x="735" 
d="M457 1898v-139q0 -15 -9 -24t-24 -9h-109q-32 0 -32 33v139q0 33 32 33h109q15 0 24 -9t9 -24zM457 1456l8 -1423q0 -15 -9 -24t-24 -9h-127q-15 0 -24 9t-9 24l7 1423q0 33 32 33h113q15 0 24 -9t9 -24z" />
    <glyph glyph-name="dotlessi" unicode="&#x131;" horiz-adv-x="534" 
d="M354 1055l6 -1022q0 -33 -32 -33h-123q-15 0 -24 9t-9 24l8 1022q0 32 33 32h109q32 0 32 -32z" />
    <glyph glyph-name="IJ" unicode="&#x132;" horiz-adv-x="1529" 
d="M311 1489h113q15 0 24 -9t9 -24l8 -1423q0 -15 -9 -24t-24 -9h-127q-15 0 -24 9t-9 24l7 1423q0 33 32 33zM1255 1108l5 -825q1 -189 -36.5 -317.5t-119 -205t-196 -109t-281.5 -32.5h-105q-15 0 -24 9t-9 24v96q0 15 9 24t24 9h103q248 0 347.5 108t100.5 379l2 840v348
q0 15 9 24t24 9h115q32 0 32 -33v-348z" />
    <glyph glyph-name="ij" unicode="&#x133;" horiz-adv-x="1130" 
d="M356 1495v-139q0 -33 -32 -33h-109q-15 0 -24 9t-9 24v139q0 15 9 24t24 9h109q32 0 32 -33zM926 1495v-139q0 -15 -9 -24t-24 -9h-109q-32 0 -32 33v139q0 33 32 33h109q15 0 24 -9t9 -24zM354 1055l6 -1022q0 -33 -32 -33h-123q-15 0 -24 9t-9 24l8 1022q0 32 33 32
h109q32 0 32 -32zM926 1055l8 -1092q0 -208 -98 -307.5t-314 -106.5q-15 0 -24 9t-9 24v94q0 32 33 35q123 6 172 61t51 181l7 1102q0 32 32 32h109q33 0 33 -32z" />
    <glyph glyph-name="Kcommaaccent" unicode="&#x136;" horiz-adv-x="1425" 
d="M707 864l647 -823q12 -17 6.5 -29t-27.5 -12h-155q-25 0 -39 20l-553 730l-246 -236l2 -481q0 -15 -9 -24t-24 -9h-129q-15 0 -24 9t-9 24l9 1423q0 33 32 33h113q15 0 24 -9t9 -24l4 -729l784 746q16 16 39 16h139q23 0 28.5 -13t-11.5 -28zM633 -291v96q0 15 9 24t24 9
h96q15 0 24 -9t9 -24v-73q0 -175 -107 -262q-20 -17 -45 -5q-28 19 -4 46q36 44 40.5 86.5t-26.5 72.5q-20 20 -20 39z" />
    <glyph glyph-name="kcommaaccent" unicode="&#x137;" horiz-adv-x="1159" 
d="M590 643l448 -602q12 -17 7 -29t-25 -12h-135q-25 0 -39 20l-369 517l-139 -131l2 -373q0 -15 -9 -24t-24 -9h-123q-32 0 -32 33l8 1462q0 15 9 24t24 9h108q15 0 24 -9t9 -24l4 -897l493 473q16 16 39 16h127q23 0 28.5 -12.5t-11.5 -27.5zM500 -291v96q0 33 32 33h97
q15 0 24 -9t9 -24v-73q0 -175 -107 -262q-20 -17 -45 -5q-28 19 -4 46q36 44 40.5 86.5t-26.5 72.5q-20 20 -20 39z" />
    <glyph glyph-name="Lacute" unicode="&#x139;" horiz-adv-x="1181" 
d="M494 1927l-197 -241q-19 -19 -41 -19h-45q-20 0 -26 11t3 28l144 240q11 22 39 22h104q21 0 26.5 -12t-7.5 -29zM342 164h754q32 0 32 -33v-98q0 -33 -32 -33h-916q-15 0 -24 9t-9 24l9 1423q0 33 32 33h113q15 0 24 -9t9 -24z" />
    <glyph glyph-name="lacute" unicode="&#x13a;" horiz-adv-x="583" 
d="M539 1933l-197 -241q-19 -19 -41 -19h-45q-20 0 -26 11t3 28l144 240q11 22 39 22h104q21 0 26.5 -12t-7.5 -29zM379 1495l8 -1462q0 -15 -9 -24t-24 -9h-123q-32 0 -32 33l6 1462q0 15 9 24t24 9h108q15 0 24 -9t9 -24z" />
    <glyph glyph-name="Lcommaaccent" unicode="&#x13b;" horiz-adv-x="1181" 
d="M342 164h754q32 0 32 -33v-98q0 -33 -32 -33h-916q-15 0 -24 9t-9 24l9 1423q0 33 32 33h113q15 0 24 -9t9 -24zM520 -291v96q0 15 9 24t24 9h96q15 0 24 -9t9 -24v-73q0 -175 -107 -262q-20 -17 -45 -5q-28 19 -4 46q36 44 41 86t-26 73q-21 21 -21 39z" />
    <glyph glyph-name="lcommaaccent" unicode="&#x13c;" horiz-adv-x="583" 
d="M379 1495l8 -1462q0 -15 -9 -24t-24 -9h-123q-32 0 -32 33l6 1462q0 15 9 24t24 9h108q15 0 24 -9t9 -24zM375 -195v-73q0 -175 -107 -262q-20 -17 -45 -5q-28 19 -4 46q36 44 40.5 86.5t-26.5 72.5q-20 20 -20 39v96q0 15 9 24t24 9h96q15 0 24 -9t9 -24z" />
    <glyph glyph-name="Lcaron" unicode="&#x13d;" horiz-adv-x="1181" 
d="M342 164h754q32 0 32 -33v-98q0 -33 -32 -33h-916q-15 0 -24 9t-9 24l9 1423q0 33 32 33h113q15 0 24 -9t9 -24z" />
    <glyph glyph-name="lcaron" unicode="&#x13e;" horiz-adv-x="583" 
d="M379 1495l8 -1462q0 -15 -9 -24t-24 -9h-123q-32 0 -32 33l6 1462q0 15 9 24t24 9h108q15 0 24 -9t9 -24zM651 1255l-47 -284q-3 -31 -35 -31h-49q-34 0 -31 35l29 285q0 30 33 30h72q34 0 28 -35z" />
    <glyph glyph-name="Ldot" unicode="&#x13f;" horiz-adv-x="1181" 
d="M342 164h754q32 0 32 -33v-98q0 -33 -32 -33h-916q-15 0 -24 9t-9 24l9 1423q0 33 32 33h113q15 0 24 -9t9 -24zM844 883v-148q0 -15 -9 -24t-24 -9h-137q-15 0 -24 9t-9 24v148q0 32 33 32h137q33 0 33 -32z" />
    <glyph glyph-name="ldot" unicode="&#x140;" horiz-adv-x="583" 
d="M379 1495l8 -1462q0 -15 -9 -24t-24 -9h-123q-32 0 -32 33l6 1462q0 15 9 24t24 9h108q15 0 24 -9t9 -24zM674 924v-148q0 -15 -9 -24t-24 -9h-106q-15 0 -24 9t-9 24v148q0 32 33 32h106q33 0 33 -32z" />
    <glyph glyph-name="Lslash" unicode="&#x141;" horiz-adv-x="1181" 
d="M342 164h754q32 0 32 -33v-98q0 -33 -32 -33h-916q-15 0 -24 9t-9 24l5 526l-117 -65q-17 -9 -28 -3.5t-11 25.5v96q0 28 22 39l134 76l4 729q0 33 32 33h113q15 0 24 -9t9 -24l4 -622l405 231q17 9 28 3t11 -26v-96q0 -28 -22 -39l-422 -241z" />
    <glyph glyph-name="lslash" unicode="&#x142;" horiz-adv-x="583" 
d="M596 1042v-96q0 -28 -23 -39l-190 -110l4 -764q0 -15 -9 -24t-24 -9h-123q-32 0 -32 33l2 659l-170 -98q-17 -9 -28 -3.5t-11 25.5v97q0 28 22 39l189 108l2 635q0 15 9 24t24 9h108q15 0 24 -9t9 -24l2 -530l176 100q17 9 28 3t11 -26z" />
    <glyph glyph-name="Nacute" unicode="&#x143;" horiz-adv-x="1476" 
d="M985 1927l-197 -241q-19 -19 -40 -19h-46q-20 0 -25.5 11t3.5 28l143 240q11 22 39 22h105q20 0 25.5 -12t-7.5 -29zM1323 1456l6 -1423q0 -15 -9 -24t-24 -9h-172q-28 0 -39 23l-753 1261l6 -1251q0 -15 -9 -24t-24 -9h-125q-15 0 -24 9t-9 24l9 1423q0 33 32 33h179
q27 0 39 -23l735 -1224l6 1214q0 15 9 24t24 9h110q15 0 24 -9t9 -24z" />
    <glyph glyph-name="nacute" unicode="&#x144;" horiz-adv-x="1189" 
d="M838 1516l-197 -242q-19 -19 -41 -19h-45q-20 0 -26 11t3 28l144 240q11 22 39 22h104q21 0 26.5 -11.5t-7.5 -28.5zM690 1112q159 0 253.5 -103.5t94.5 -291.5v-684q0 -33 -32 -33h-123q-15 0 -24 9t-9 24v639q0 132 -58 200t-163 68q-118 0 -196 -84.5t-95 -245.5
l2 -577q0 -15 -9 -24t-24 -9h-123q-32 0 -32 33l8 1022q0 32 33 32h108q33 0 33 -32l2 -129l14 -2q132 188 340 188z" />
    <glyph glyph-name="Ncommaaccent" unicode="&#x145;" horiz-adv-x="1476" 
d="M1323 1456l6 -1423q0 -15 -9 -24t-24 -9h-172q-28 0 -39 23l-753 1261l6 -1251q0 -15 -9 -24t-24 -9h-125q-15 0 -24 9t-9 24l9 1423q0 33 32 33h179q27 0 39 -23l735 -1224l6 1214q0 15 9 24t24 9h110q15 0 24 -9t9 -24zM657 -291v96q0 15 9 24t24 9h96q15 0 24 -9
t9 -24v-73q0 -176 -106 -262q-20 -17 -45 -5q-28 19 -4 46q36 44 40.5 86.5t-26.5 72.5q-21 21 -21 39z" />
    <glyph glyph-name="ncommaaccent" unicode="&#x146;" horiz-adv-x="1189" 
d="M690 1112q159 0 253.5 -103.5t94.5 -291.5v-684q0 -33 -32 -33h-123q-15 0 -24 9t-9 24v639q0 132 -58 200t-163 68q-118 0 -196 -84.5t-95 -245.5l2 -577q0 -15 -9 -24t-24 -9h-123q-32 0 -32 33l8 1022q0 32 33 32h108q33 0 33 -32l2 -129l14 -2q132 188 340 188z
M674 -195v-73q0 -175 -107 -262q-20 -17 -45 -5q-28 19 -4 46q36 44 40.5 86.5t-26.5 72.5q-20 20 -20 39v96q0 15 9 24t24 9h96q15 0 24 -9t9 -24z" />
    <glyph glyph-name="Ncaron" unicode="&#x147;" horiz-adv-x="1476" 
d="M774 1667h-74q-22 0 -41 19l-200 237q-12 17 -6.5 29t26.5 12h88q25 0 39 -20l125 -170h17l120 170q14 20 39 20h86q22 0 27.5 -12t-6.5 -29l-199 -237q-19 -19 -41 -19zM1323 1456l6 -1423q0 -15 -9 -24t-24 -9h-172q-28 0 -39 23l-753 1261l6 -1251q0 -15 -9 -24
t-24 -9h-125q-15 0 -24 9t-9 24l9 1423q0 33 32 33h179q27 0 39 -23l735 -1224l6 1214q0 15 9 24t24 9h110q15 0 24 -9t9 -24z" />
    <glyph glyph-name="ncaron" unicode="&#x148;" horiz-adv-x="1189" 
d="M332 1552h88q25 0 39 -20l125 -170h16l121 170q14 20 39 20h86q21 0 26.5 -12t-6.5 -29l-198 -237q-19 -19 -41 -19h-74q-22 0 -41 19l-201 237q-12 17 -6.5 29t27.5 12zM690 1112q159 0 253.5 -103.5t94.5 -291.5v-684q0 -33 -32 -33h-123q-15 0 -24 9t-9 24v639
q0 132 -58 200t-163 68q-118 0 -196 -84.5t-95 -245.5l2 -577q0 -15 -9 -24t-24 -9h-123q-32 0 -32 33l8 1022q0 32 33 32h108q33 0 33 -32l2 -129l14 -2q132 188 340 188z" />
    <glyph glyph-name="Eng" unicode="&#x14a;" horiz-adv-x="1476" 
d="M1323 1456l6 -1493q2 -207 -96 -307t-313 -107q-15 0 -24 9t-9 24v94q0 32 33 35q123 6 172 61t49 181v49l-809 1292l6 -1261q0 -15 -9 -24t-24 -9h-125q-15 0 -24 9t-9 24l9 1423q0 33 32 33h179q27 0 41 -23l735 -1167l4 1157q0 15 9 24t24 9h110q15 0 24 -9t9 -24z
" />
    <glyph glyph-name="eng" unicode="&#x14b;" horiz-adv-x="1189" 
d="M690 1112q159 0 253.5 -103.5t94.5 -291.5v-758q0 -209 -97 -306.5t-312 -103.5q-15 0 -24 9t-9 24v94q0 33 33 33q124 7 172.5 62.5t48.5 189.5v711q0 132 -58 200t-163 68q-118 0 -196 -84.5t-95 -245.5l2 -577q0 -15 -9 -24t-24 -9h-123q-32 0 -32 33l8 1022
q0 32 33 32h108q33 0 33 -32l2 -129l14 -2q132 188 340 188z" />
    <glyph glyph-name="Omacron" unicode="&#x14c;" horiz-adv-x="1585" 
d="M1028 1862v-70q0 -15 -9 -24t-24 -9h-401q-15 0 -24 9t-9 24v70q0 32 33 32h401q33 0 33 -32zM805 1513q197 0 353 -92.5t244.5 -263t88.5 -389.5q0 -226 -92 -408t-254.5 -284.5t-362.5 -102.5q-196 0 -353 97.5t-246 274t-89 398.5q0 224 92.5 400t254.5 273t364 97z
M793 1354q-111 0 -206 -40.5t-164.5 -116t-109 -189t-39.5 -252.5q0 -281 146 -451t375 -170q110 0 205 43.5t164.5 122t109 195t39.5 256.5q0 277 -145.5 439.5t-374.5 162.5z" />
    <glyph glyph-name="omacron" unicode="&#x14d;" 
d="M838 1450v-70q0 -32 -33 -32h-402q-32 0 -32 32v70q0 33 32 33h402q15 0 24 -9t9 -24zM612 1112q220 0 362 -154t142 -401q0 -167 -67 -300.5t-186 -208.5t-267 -75q-219 0 -362.5 159.5t-143.5 406.5q0 253 147.5 413t374.5 160zM594 954q-144 0 -235 -108.5t-91 -290.5
q0 -187 98.5 -303.5t245.5 -116.5q144 0 235 111t91 291q0 190 -97.5 303.5t-246.5 113.5z" />
    <glyph glyph-name="Ohungarumlaut" unicode="&#x150;" horiz-adv-x="1585" 
d="M909 1919l-196 -242q-18 -18 -41 -18h-45q-20 0 -26 11t3 28l144 239q12 23 38 23h105q20 0 25.5 -12t-7.5 -29zM1214 1919l-196 -242q-18 -18 -41 -18h-45q-20 0 -26 11t3 28l144 239q11 23 39 23h104q20 0 25.5 -12t-7.5 -29zM805 1513q197 0 353 -92.5t244.5 -263
t88.5 -389.5q0 -226 -92 -408t-254.5 -284.5t-362.5 -102.5q-196 0 -353 97.5t-246 274t-89 398.5q0 224 92.5 400t254.5 273t364 97zM793 1354q-111 0 -206 -40.5t-164.5 -116t-109 -189t-39.5 -252.5q0 -281 146 -451t375 -170q110 0 205 43.5t164.5 122t109 195
t39.5 256.5q0 277 -145.5 439.5t-374.5 162.5z" />
    <glyph glyph-name="ohungarumlaut" unicode="&#x151;" 
d="M719 1507l-197 -241q-19 -19 -41 -19h-45q-20 0 -25.5 11t3.5 28l143 240q11 22 39 22h104q21 0 26.5 -12t-7.5 -29zM1024 1507l-197 -241q-19 -19 -41 -19h-45q-20 0 -25.5 11t3.5 28l143 240q11 22 39 22h105q20 0 25.5 -12t-7.5 -29zM612 1112q220 0 362 -154
t142 -401q0 -167 -67 -300.5t-186 -208.5t-267 -75q-219 0 -362.5 159.5t-143.5 406.5q0 253 147.5 413t374.5 160zM594 954q-144 0 -235 -108.5t-91 -290.5q0 -187 98.5 -303.5t245.5 -116.5q144 0 235 111t91 291q0 190 -97.5 303.5t-246.5 113.5z" />
    <glyph glyph-name="OE" unicode="&#x152;" horiz-adv-x="1873" 
d="M1110 164h637q15 0 24 -9t9 -24v-98q0 -15 -9 -24t-24 -9h-936q-215 0 -379 95t-251 263.5t-87 384.5q0 163 55 302t152 236.5t234 152.5t296 55h914q15 0 24 -9t9 -24v-96q0 -15 -9 -24t-24 -9h-641l2 -465h536q15 0 24 -9t9 -24v-100q0 -15 -9 -24t-24 -9h-534z
M918 160l6 1167h-93q-253 0 -405 -151.5t-152 -419.5q0 -272 152 -434t401 -162h91z" />
    <glyph glyph-name="oe" unicode="&#x153;" horiz-adv-x="2009" 
d="M1454 1110q152 0 260.5 -75.5t158.5 -200.5t44 -283q-3 -33 -35 -33h-766q1 -179 92.5 -282t247.5 -103q90 0 152.5 36t107.5 110q11 22 39 22h105q18 0 25 -10.5t1 -28.5q-61 -139 -177 -214t-267 -75q-137 0 -246 61.5t-176 172.5q-70 -109 -180.5 -171.5t-243.5 -62.5
q-219 0 -362.5 159.5t-143.5 406.5q0 253 147.5 413t374.5 160q133 0 242 -60t176 -167q68 107 178 166t246 59zM612 135q144 0 235 111t91 291q0 190 -97.5 303.5t-246.5 113.5q-144 0 -235 -108.5t-91 -290.5q0 -187 98.5 -303.5t245.5 -116.5zM1126 659h609
q-5 126 -83.5 209.5t-211.5 83.5q-132 0 -211.5 -81t-102.5 -212z" />
    <glyph glyph-name="Racute" unicode="&#x154;" horiz-adv-x="1345" 
d="M934 1917l-197 -242q-18 -18 -41 -18h-45q-20 0 -25.5 11t3.5 28l143 239q12 23 39 23h104q21 0 26.5 -12t-7.5 -29zM639 657h-301l4 -624q0 -15 -9 -24t-24 -9h-129q-15 0 -24 9t-9 24l9 1423q0 33 32 33h568q217 0 347 -114t130 -294q0 -161 -104.5 -275.5
t-284.5 -141.5l440 -625q12 -15 6 -27t-26 -12h-156q-25 0 -39 20zM336 817h399q155 0 236.5 66.5t81.5 183.5q0 121 -85 191.5t-233 70.5h-401z" />
    <glyph glyph-name="racute" unicode="&#x155;" horiz-adv-x="749" 
d="M631 1516l-197 -242q-19 -19 -41 -19h-45q-20 0 -25.5 11t3.5 28l143 240q11 22 39 22h104q21 0 26.5 -11.5t-7.5 -28.5zM702 1079v-125q0 -32 -32 -32q-71 -2 -125.5 -18t-100.5 -51t-73 -99t-33 -156l2 -565q0 -15 -9 -24t-24 -9h-123q-32 0 -32 33l8 1022q0 32 33 32
h108q33 0 33 -32l2 -137l14 -3q57 84 140 136t180 59q15 1 23.5 -7.5t8.5 -23.5z" />
    <glyph glyph-name="Rcommaaccent" unicode="&#x156;" horiz-adv-x="1345" 
d="M844 664l440 -625q12 -15 6 -27t-26 -12h-156q-25 0 -39 20l-430 637h-301l4 -624q0 -15 -9 -24t-24 -9h-129q-15 0 -24 9t-9 24l9 1423q0 33 32 33h568q217 0 347 -114t130 -294q0 -161 -104.5 -275.5t-284.5 -141.5zM336 817h399q155 0 236.5 66.5t81.5 183.5
q0 121 -85 191.5t-233 70.5h-401zM608 -291v96q0 15 9 24t24 9h96q15 0 24 -9t9 -24v-73q0 -176 -106 -262q-21 -18 -46 -5q-28 19 -4 46q36 44 41 86t-26 73q-21 21 -21 39z" />
    <glyph glyph-name="rcommaaccent" unicode="&#x157;" horiz-adv-x="749" 
d="M702 1079v-125q0 -32 -32 -32q-71 -2 -125.5 -18t-100.5 -51t-73 -99t-33 -156l2 -565q0 -15 -9 -24t-24 -9h-123q-32 0 -32 33l8 1022q0 32 33 32h108q33 0 33 -32l2 -137l14 -3q57 84 140 136t180 59q15 1 23.5 -7.5t8.5 -23.5zM324 -195v-73q0 -175 -107 -262
q-20 -17 -45 -5q-28 19 -4 46q36 44 40.5 86.5t-26.5 72.5q-20 20 -20 39v96q0 15 9 24t24 9h96q15 0 24 -9t9 -24z" />
    <glyph glyph-name="Rcaron" unicode="&#x158;" horiz-adv-x="1345" 
d="M725 1657h-74q-23 0 -41 18l-200 238q-12 17 -6.5 29t26.5 12h88q24 0 39 -21l125 -170h16l121 170q15 21 39 21h86q22 0 27.5 -12t-6.5 -29l-199 -238q-18 -18 -41 -18zM639 657h-301l4 -624q0 -15 -9 -24t-24 -9h-129q-15 0 -24 9t-9 24l9 1423q0 33 32 33h568
q217 0 347 -114t130 -294q0 -161 -104.5 -275.5t-284.5 -141.5l440 -625q12 -15 6 -27t-26 -12h-156q-25 0 -39 20zM336 817h399q155 0 236.5 66.5t81.5 183.5q0 121 -85 191.5t-233 70.5h-401z" />
    <glyph glyph-name="rcaron" unicode="&#x159;" horiz-adv-x="749" 
d="M127 1552h88q25 0 39 -20l125 -170h16l121 170q14 20 39 20h86q22 0 27.5 -12t-6.5 -29l-199 -237q-19 -19 -41 -19h-74q-22 0 -41 19l-201 237q-12 17 -6.5 29t27.5 12zM702 1079v-125q0 -32 -32 -32q-71 -2 -125.5 -18t-100.5 -51t-73 -99t-33 -156l2 -565
q0 -15 -9 -24t-24 -9h-123q-32 0 -32 33l8 1022q0 32 33 32h108q33 0 33 -32l2 -137l14 -3q57 84 140 136t180 59q15 1 23.5 -7.5t8.5 -23.5z" />
    <glyph glyph-name="Sacute" unicode="&#x15a;" horiz-adv-x="1341" 
d="M918 1917l-197 -242q-18 -18 -41 -18h-45q-20 0 -26 11t3 28l144 239q12 23 39 23h104q21 0 26.5 -12t-7.5 -29zM674 1513q106 0 197.5 -29t156.5 -79t110.5 -111.5t71.5 -132.5q13 -37 -26 -37h-111q-27 0 -39 23q-52 91 -146.5 148t-228.5 57q-151 0 -233 -59t-82 -156
t81.5 -155t279.5 -118l79 -24q244 -75 353.5 -186t109.5 -267q0 -193 -144.5 -303.5t-389.5 -110.5q-111 0 -206 24.5t-162 64.5t-118.5 93.5t-81 108t-43.5 111.5q-5 15 3.5 25t25.5 10h117q24 0 37 -25q49 -111 155 -179.5t279 -68.5q165 0 253.5 58t88.5 167
q0 102 -87 174.5t-284 137.5l-84 26q-223 72 -332.5 165.5t-113.5 244.5q-4 184 142.5 293.5t371.5 109.5z" />
    <glyph glyph-name="sacute" unicode="&#x15b;" horiz-adv-x="1062" 
d="M778 1516l-196 -242q-19 -19 -41 -19h-45q-20 0 -26 11t3 28l143 240q11 22 39 22h105q20 0 25.5 -11.5t-7.5 -28.5zM532 1112q88 0 162.5 -23.5t124.5 -63.5t82.5 -86t48.5 -97q6 -17 -1.5 -27t-24.5 -10h-107q-27 0 -41 22q-81 127 -254 127q-95 0 -154 -40.5
t-59 -106.5q0 -59 54.5 -93t183.5 -71l84 -25q183 -54 263.5 -129t80.5 -188q0 -150 -113.5 -239t-304.5 -89q-180 0 -297 81.5t-162 215.5q-6 17 1 27t26 10h121q24 0 39 -24q76 -150 282 -150q104 0 165 37.5t61 114.5q0 65 -57 107t-191 81l-82 25q-162 46 -246 113.5
t-84 183.5q0 140 113.5 228.5t285.5 88.5z" />
    <glyph glyph-name="Scedilla" unicode="&#x15e;" horiz-adv-x="1341" 
d="M1247 387q0 -191 -142 -301t-382 -113l-31 -98q71 -13 115.5 -57.5t44.5 -116.5q0 -80 -55 -132t-154 -52q-72 0 -131 30q-28 13 -18 43l10 33q9 31 43 19q57 -23 96 -23t66.5 22.5t27.5 53.5q0 40 -33.5 65.5t-103.5 26.5h-6q-39 0 -29 37l47 156q-113 13 -206 53
t-153 97t-97.5 118.5t-53.5 126.5q-5 15 3.5 25t25.5 10h117q24 0 37 -25q49 -111 155 -179.5t279 -68.5q165 0 253.5 58t88.5 167q0 102 -87 174.5t-284 137.5l-84 26q-223 72 -332.5 165.5t-113.5 244.5q-4 184 142.5 293.5t371.5 109.5q106 0 197.5 -29t156.5 -79
t110.5 -111.5t71.5 -132.5q13 -37 -26 -37h-111q-27 0 -39 23q-52 91 -146.5 148t-228.5 57q-151 0 -233 -59t-82 -156t81.5 -155t279.5 -118l79 -24q244 -75 353.5 -186t109.5 -267z" />
    <glyph glyph-name="scedilla" unicode="&#x15f;" horiz-adv-x="1062" 
d="M975 301q0 -146 -106 -234t-287 -94l-31 -98q71 -13 115.5 -57.5t44.5 -116.5q0 -80 -55 -132t-154 -52q-72 0 -131 30q-29 13 -19 43l10 33q9 31 44 19q58 -23 96 -23q39 0 66.5 22.5t27.5 53.5q0 40 -33.5 65.5t-103.5 26.5h-6q-39 0 -29 37l47 156q-145 19 -239 96.5
t-134 193.5q-6 17 1 27t26 10h121q24 0 39 -24q76 -150 282 -150q104 0 165 37.5t61 114.5q0 65 -57 107t-191 81l-82 25q-162 46 -246 113.5t-84 183.5q0 140 113.5 228.5t285.5 88.5q88 0 162.5 -23.5t124.5 -63.5t82.5 -86t48.5 -97q6 -17 -1.5 -27t-24.5 -10h-107
q-27 0 -41 22q-81 127 -254 127q-95 0 -154 -40.5t-59 -106.5q0 -59 54.5 -93t183.5 -71l84 -25q183 -54 263.5 -129t80.5 -188z" />
    <glyph glyph-name="Scaron" unicode="&#x160;" horiz-adv-x="1341" 
d="M412 1954h88q24 0 39 -21l125 -170h16l121 170q15 21 39 21h86q21 0 26.5 -12t-6.5 -29l-198 -238q-18 -18 -41 -18h-74q-23 0 -41 18l-201 238q-12 17 -6.5 29t27.5 12zM674 1513q106 0 197.5 -29t156.5 -79t110.5 -111.5t71.5 -132.5q13 -37 -26 -37h-111q-27 0 -39 23
q-52 91 -146.5 148t-228.5 57q-151 0 -233 -59t-82 -156t81.5 -155t279.5 -118l79 -24q244 -75 353.5 -186t109.5 -267q0 -193 -144.5 -303.5t-389.5 -110.5q-111 0 -206 24.5t-162 64.5t-118.5 93.5t-81 108t-43.5 111.5q-5 15 3.5 25t25.5 10h117q24 0 37 -25
q49 -111 155 -179.5t279 -68.5q165 0 253.5 58t88.5 167q0 102 -87 174.5t-284 137.5l-84 26q-223 72 -332.5 165.5t-113.5 244.5q-4 184 142.5 293.5t371.5 109.5z" />
    <glyph glyph-name="scaron" unicode="&#x161;" horiz-adv-x="1062" 
d="M272 1552h88q25 0 39 -20l125 -170h17l121 170q14 20 38 20h86q22 0 27.5 -12t-6.5 -29l-199 -237q-19 -19 -41 -19h-73q-22 0 -41 19l-201 237q-12 17 -6.5 29t26.5 12zM532 1112q88 0 162.5 -23.5t124.5 -63.5t82.5 -86t48.5 -97q6 -17 -1.5 -27t-24.5 -10h-107
q-27 0 -41 22q-81 127 -254 127q-95 0 -154 -40.5t-59 -106.5q0 -59 54.5 -93t183.5 -71l84 -25q183 -54 263.5 -129t80.5 -188q0 -150 -113.5 -239t-304.5 -89q-180 0 -297 81.5t-162 215.5q-6 17 1 27t26 10h121q24 0 39 -24q76 -150 282 -150q104 0 165 37.5t61 114.5
q0 65 -57 107t-191 81l-82 25q-162 46 -246 113.5t-84 183.5q0 140 113.5 228.5t285.5 88.5z" />
    <glyph glyph-name="Tcedilla" unicode="&#x162;" horiz-adv-x="1198" 
d="M1169 1456v-98q0 -33 -32 -33h-447l6 -1292q0 -33 -32 -33h-5l-38 -125q71 -13 115 -57.5t44 -116.5q0 -80 -55 -132t-154 -52q-72 0 -131 30q-28 13 -18 43l10 33q9 31 43 19q57 -23 96 -23t67 22.5t28 53.5q0 40 -34 65.5t-104 26.5h-6q-38 0 -28 37l53 176h-10
q-15 0 -24 9t-9 24l6 1292h-449q-32 0 -32 33v98q0 33 32 33h1076q32 0 32 -33z" />
    <glyph glyph-name="tcedilla" unicode="&#x163;" horiz-adv-x="716" 
d="M670 1055v-86q0 -15 -9 -24t-24 -9h-199l4 -903q0 -33 -32 -33h-13l-39 -125q71 -13 115.5 -57.5t44.5 -116.5q0 -80 -55 -132t-154 -52q-72 0 -131 30q-28 13 -18 43l10 33q9 31 43 19q57 -23 96 -23t66.5 22.5t27.5 53.5q0 40 -33.5 65.5t-103.5 26.5h-6q-39 0 -29 37
l54 176q-31 0 -31 33l4 903h-164q-15 0 -24 9t-9 24v86q0 32 33 32h164l2 392q0 32 33 32h108q33 0 33 -32l2 -392h201q33 0 33 -32z" />
    <glyph glyph-name="Tcaron" unicode="&#x164;" horiz-adv-x="1198" 
d="M635 1657h-74q-23 0 -41 18l-201 238q-12 17 -6.5 29t27.5 12h88q24 0 39 -21l125 -170h16l121 170q15 21 39 21h86q21 0 26.5 -12t-6.5 -29l-198 -238q-18 -18 -41 -18zM1169 1456v-98q0 -33 -32 -33h-447l6 -1292q0 -33 -32 -33h-127q-15 0 -24 9t-9 24l6 1292h-449
q-32 0 -32 33v98q0 33 32 33h1076q32 0 32 -33z" />
    <glyph glyph-name="tcaron" unicode="&#x165;" horiz-adv-x="716" 
d="M717 1528h71q35 0 29 -35l-47 -285q-3 -30 -35 -30h-49q-34 0 -31 34l29 285q0 31 33 31zM436 1087h201q33 0 33 -32v-86q0 -15 -9 -24t-24 -9h-199l4 -903q0 -33 -32 -33h-123q-15 0 -24 9t-9 24l4 903h-164q-15 0 -24 9t-9 24v86q0 32 33 32h164l2 392q0 32 33 32h108
q33 0 33 -32z" />
    <glyph glyph-name="Tbar" unicode="&#x166;" horiz-adv-x="1198" 
d="M834 1851v-69q0 -15 -9 -24t-24 -9h-402q-32 0 -32 33v69q0 33 32 33h402q15 0 24 -9t9 -24zM1169 1456v-98q0 -33 -32 -33h-447l6 -1292q0 -33 -32 -33h-127q-15 0 -24 9t-9 24l6 1292h-449q-32 0 -32 33v98q0 33 32 33h1076q32 0 32 -33z" />
    <glyph glyph-name="tbar" unicode="&#x167;" horiz-adv-x="716" 
d="M438 936v-201h146q32 0 32 -33v-92q0 -32 -32 -32h-146l4 -545q0 -33 -32 -33h-123q-15 0 -24 9t-9 24l2 545h-123q-33 0 -33 32v92q0 15 9 24t24 9h123l2 201h-164q-15 0 -24 9t-9 24v86q0 32 33 32h164l2 392q0 32 33 32h108q33 0 33 -32l2 -392h201q33 0 33 -32v-86
q0 -15 -9 -24t-24 -9h-199z" />
    <glyph glyph-name="Utilde" unicode="&#x168;" horiz-adv-x="1511" 
d="M649 1923q36 0 67 -14t52.5 -33.5t40 -39.5t38 -34t38.5 -14q46 0 53 70q3 32 35 32h43q15 0 23.5 -8.5t7.5 -23.5q-5 -81 -44 -135t-118 -54q-33 0 -62 14t-49.5 33.5t-39 39.5t-40 34t-43.5 14q-52 0 -59 -69q-3 -33 -35 -33h-45q-15 0 -23.5 9t-7.5 24q5 84 45.5 136
t122.5 52zM1360 1456l2 -815q1 -318 -167 -493t-441 -175t-440.5 175t-166.5 493l5 815q0 33 32 33h115q15 0 24 -9t9 -24l2 -794q1 -262 113.5 -394.5t310.5 -132.5q199 0 308.5 132.5t109.5 394.5l4 794q0 33 32 33h115q15 0 24 -9t9 -24z" />
    <glyph glyph-name="utilde" unicode="&#x169;" horiz-adv-x="1181" 
d="M485 1511q36 0 67 -14t52.5 -33.5t40 -39.5t38 -34t38.5 -14q46 0 53 70q3 33 35 33h43q15 0 23.5 -9t7.5 -24q-5 -81 -44 -135t-118 -54q-41 0 -76 21.5t-55.5 46.5t-48 46.5t-54.5 21.5q-51 0 -59 -70q-3 -33 -35 -33h-45q-15 0 -23.5 9t-7.5 24q5 84 45.5 136
t122.5 52zM1022 1055l6 -1022q0 -15 -9 -24t-24 -9h-121q-32 0 -32 33l2 129h-15q-129 -189 -335 -189q-159 0 -250.5 107t-91.5 307l4 668q0 32 32 32h109q33 0 33 -32l4 -625q3 -285 217 -285q118 0 195.5 84t97.5 248l4 578q0 32 33 32h108q33 0 33 -32z" />
    <glyph glyph-name="Umacron" unicode="&#x16a;" horiz-adv-x="1511" 
d="M987 1862v-70q0 -15 -9 -24t-24 -9h-401q-15 0 -24 9t-9 24v70q0 32 33 32h401q33 0 33 -32zM1360 1456l2 -815q1 -318 -167 -493t-441 -175t-440.5 175t-166.5 493l5 815q0 33 32 33h115q15 0 24 -9t9 -24l2 -794q1 -262 113.5 -394.5t310.5 -132.5q199 0 308.5 132.5
t109.5 394.5l4 794q0 33 32 33h115q15 0 24 -9t9 -24z" />
    <glyph glyph-name="umacron" unicode="&#x16b;" horiz-adv-x="1181" 
d="M823 1450v-70q0 -32 -32 -32h-402q-33 0 -33 32v70q0 15 9 24t24 9h402q32 0 32 -33zM1022 1055l6 -1022q0 -15 -9 -24t-24 -9h-121q-32 0 -32 33l2 129h-15q-129 -189 -335 -189q-159 0 -250.5 107t-91.5 307l4 668q0 32 32 32h109q33 0 33 -32l4 -625q3 -285 217 -285
q118 0 195.5 84t97.5 248l4 578q0 32 33 32h108q33 0 33 -32z" />
    <glyph glyph-name="Uring" unicode="&#x16e;" horiz-adv-x="1511" 
d="M752 1987q80 0 133 -52t53 -135q0 -82 -53.5 -133t-132.5 -51q-78 0 -131.5 51t-53.5 133q0 83 53.5 135t131.5 52zM752 1892q-38 0 -64 -25t-26 -67q0 -39 26.5 -64.5t63.5 -25.5q39 0 65.5 25.5t26.5 64.5q0 42 -26.5 67t-65.5 25zM1360 1456l2 -815q1 -318 -167 -493
t-441 -175t-440.5 175t-166.5 493l5 815q0 33 32 33h115q15 0 24 -9t9 -24l2 -794q1 -262 113.5 -394.5t310.5 -132.5q199 0 308.5 132.5t109.5 394.5l4 794q0 33 32 33h115q15 0 24 -9t9 -24z" />
    <glyph glyph-name="uring" unicode="&#x16f;" horiz-adv-x="1181" 
d="M588 1575q80 0 133 -51.5t53 -134.5q0 -82 -53.5 -133.5t-132.5 -51.5q-78 0 -131.5 51.5t-53.5 133.5q0 83 53.5 134.5t131.5 51.5zM588 1481q-38 0 -64 -25t-26 -67q0 -39 26.5 -65t63.5 -26q39 0 65.5 26t26.5 65q0 42 -26.5 67t-65.5 25zM1022 1055l6 -1022
q0 -15 -9 -24t-24 -9h-121q-32 0 -32 33l2 129h-15q-129 -189 -335 -189q-159 0 -250.5 107t-91.5 307l4 668q0 32 32 32h109q33 0 33 -32l4 -625q3 -285 217 -285q118 0 195.5 84t97.5 248l4 578q0 32 33 32h108q33 0 33 -32z" />
    <glyph glyph-name="Uhungarumlaut" unicode="&#x170;" horiz-adv-x="1511" 
d="M868 1919l-196 -242q-18 -18 -41 -18h-45q-20 0 -26 11t3 28l144 239q11 23 38 23h105q20 0 25.5 -12t-7.5 -29zM1174 1919l-197 -242q-18 -18 -41 -18h-45q-20 0 -26 11t3 28l144 239q12 23 39 23h104q21 0 26.5 -12t-7.5 -29zM1360 1456l2 -815q1 -318 -167 -493
t-441 -175t-440.5 175t-166.5 493l5 815q0 33 32 33h115q15 0 24 -9t9 -24l2 -794q1 -262 113.5 -394.5t310.5 -132.5q199 0 308.5 132.5t109.5 394.5l4 794q0 33 32 33h115q15 0 24 -9t9 -24z" />
    <glyph glyph-name="uhungarumlaut" unicode="&#x171;" horiz-adv-x="1181" 
d="M705 1507l-197 -241q-19 -19 -41 -19h-45q-20 0 -26 11t3 28l144 240q11 22 39 22h104q21 0 26.5 -12t-7.5 -29zM1010 1507l-197 -241q-19 -19 -41 -19h-45q-20 0 -25.5 11t3.5 28l143 240q11 22 39 22h104q21 0 26.5 -12t-7.5 -29zM1022 1055l6 -1022q0 -15 -9 -24
t-24 -9h-121q-32 0 -32 33l2 129h-15q-129 -189 -335 -189q-159 0 -250.5 107t-91.5 307l4 668q0 32 32 32h109q33 0 33 -32l4 -625q3 -285 217 -285q118 0 195.5 84t97.5 248l4 578q0 32 33 32h108q33 0 33 -32z" />
    <glyph glyph-name="Uogonek" unicode="&#x172;" horiz-adv-x="1511" 
d="M989 12q-203 -121 -203 -223q0 -82 115 -82q44 0 88 8q35 3 35 -30v-62q0 -28 -29 -37q-55 -10 -102 -10q-111 0 -173.5 56t-62.5 151q0 98 76 190q-265 6 -426 180.5t-160 487.5l5 815q0 33 32 33h115q15 0 24 -9t9 -24l2 -794q1 -262 113.5 -394.5t310.5 -132.5
q199 0 308.5 132.5t109.5 394.5l4 794q0 33 32 33h115q15 0 24 -9t9 -24l2 -815q1 -242 -98.5 -403t-274.5 -226z" />
    <glyph glyph-name="uogonek" unicode="&#x173;" horiz-adv-x="1181" 
d="M786 -248q0 -82 115 -82q44 0 88 8q35 3 35 -30v-62q0 -28 -29 -37q-55 -10 -102 -10q-111 0 -173.5 56t-62.5 151q0 153 185 293l2 123h-15q-129 -189 -335 -189q-159 0 -250.5 107t-91.5 307l4 668q0 32 32 32h109q33 0 33 -32l4 -625q3 -285 217 -285q118 0 195.5 84
t97.5 248l4 578q0 32 33 32h108q33 0 33 -32l6 -1051q1 -1 -1 -2.5t-7.5 -5t-11.5 -7.5t-16.5 -10.5t-20.5 -13.5q-185 -115 -185 -213z" />
    <glyph glyph-name="Wcircumflex" unicode="&#x174;" horiz-adv-x="2023" 
d="M1004 1858l-121 -170q-15 -21 -39 -21h-86q-22 0 -27.5 12t6.5 29l199 238q18 18 41 18h74q23 0 41 -18l200 -238q12 -17 6.5 -29t-26.5 -12h-88q-24 0 -39 21l-125 170h-16zM1835 1489h117q38 0 28 -37l-403 -1423q-9 -29 -37 -29h-151q-28 0 -37 29l-332 1198h-16
l-330 -1198q-9 -29 -37 -29h-152q-27 0 -36 29l-406 1423q-10 37 29 37h116q28 0 37 -29l332 -1161h16l326 1161q9 29 37 29h151q28 0 37 -29l326 -1161h18l330 1161q9 29 37 29z" />
    <glyph glyph-name="wcircumflex" unicode="&#x175;" horiz-adv-x="1583" 
d="M780 1446l-121 -170q-15 -21 -38 -21h-86q-22 0 -27.5 12t6.5 29l199 238q18 18 41 18h73q23 0 41 -18l201 -238q12 -17 6.5 -29t-26.5 -12h-88q-24 0 -39 21l-125 170h-17zM1397 1087h104q38 0 29 -36l-285 -1022q-9 -29 -37 -29h-172q-28 0 -37 27l-206 721h-17
l-192 -719q-9 -29 -37 -29h-174q-28 0 -37 29l-283 1022q-9 36 29 36h106q29 0 37 -28l230 -862h22l232 862q8 28 36 28h95q29 0 37 -28l233 -862h20l230 862q8 28 37 28z" />
    <glyph glyph-name="Ycircumflex" unicode="&#x176;" horiz-adv-x="1224" 
d="M602 1858l-121 -170q-15 -21 -39 -21h-86q-21 0 -26.5 12t6.5 29l199 238q18 18 40 18h74q23 0 41 -18l201 -238q12 -17 6.5 -29t-27.5 -12h-88q-24 0 -39 21l-125 170h-16zM707 627l4 -594q0 -15 -9 -24t-24 -9h-125q-15 0 -24 9t-9 24l4 594l-475 823q-9 17 -3 28
t26 11h127q27 0 39 -23l372 -647h13l374 647q11 23 39 23h117q20 0 26 -11t-3 -28z" />
    <glyph glyph-name="ycircumflex" unicode="&#x177;" horiz-adv-x="1075" 
d="M530 1446l-120 -170q-15 -21 -39 -21h-86q-22 0 -27.5 12t6.5 29l199 238q18 18 41 18h74q22 0 40 -18l201 -238q12 -17 6.5 -29t-26.5 -12h-88q-24 0 -39 21l-125 170h-17zM887 1087h104q36 0 27 -36l-516 -1475q-12 -27 -39 -27h-123q-19 0 -26 10t-1 27l131 367
l-389 1098q-9 36 27 36h106q28 0 37 -26l297 -860h15l311 860q12 26 39 26z" />
    <glyph glyph-name="Ydieresis" unicode="&#x178;" horiz-adv-x="1224" 
d="M553 1909v-140q0 -32 -33 -32h-94q-33 0 -33 32v140q0 15 9 24t24 9h94q15 0 24 -9t9 -24zM850 1909v-140q0 -32 -33 -32h-94q-33 0 -33 32v140q0 15 9 24t24 9h94q15 0 24 -9t9 -24zM707 627l4 -594q0 -15 -9 -24t-24 -9h-125q-15 0 -24 9t-9 24l4 594l-475 823
q-9 17 -3 28t26 11h127q27 0 39 -23l372 -647h13l374 647q11 23 39 23h117q20 0 26 -11t-3 -28z" />
    <glyph glyph-name="Zacute" unicode="&#x179;" horiz-adv-x="1341" 
d="M901 1917l-196 -242q-18 -18 -41 -18h-46q-20 0 -25.5 11t3.5 28l143 239q11 23 39 23h105q20 0 25.5 -12t-7.5 -29zM342 166h842q15 0 24 -9t9 -24v-100q0 -15 -9 -24t-24 -9h-1049q-15 0 -24 9t-9 24v82q0 25 21 51l838 1145v14h-787q-15 0 -24 9t-9 24v98q0 15 9 24
t24 9h991q15 0 24 -9t9 -24v-78q0 -30 -18 -53l-838 -1149v-10z" />
    <glyph glyph-name="zacute" unicode="&#x17a;" horiz-adv-x="1007" 
d="M737 1516l-196 -242q-19 -19 -41 -19h-45q-20 0 -26 11t3 28l143 240q11 22 39 22h105q20 0 25.5 -11.5t-7.5 -28.5zM905 1055v-92v-2q0 -15 -18 -33l-580 -768v-8h576q32 0 32 -33v-86q0 -33 -32 -33h-760q-15 0 -24 9t-9 24v90q0 12 6 18l606 785v10h-557q-32 0 -32 33
v86q0 32 32 32h727q33 0 33 -32z" />
    <glyph glyph-name="Zdotaccent" unicode="&#x17b;" horiz-adv-x="1341" 
d="M743 1896v-139q0 -33 -32 -33h-109q-15 0 -24 9t-9 24v139q0 15 9 24t24 9h109q32 0 32 -33zM342 166h842q15 0 24 -9t9 -24v-100q0 -15 -9 -24t-24 -9h-1049q-15 0 -24 9t-9 24v82q0 25 21 51l838 1145v14h-787q-15 0 -24 9t-9 24v98q0 15 9 24t24 9h991q15 0 24 -9
t9 -24v-78q0 -30 -18 -53l-838 -1149v-10z" />
    <glyph glyph-name="zdotaccent" unicode="&#x17c;" horiz-adv-x="1007" 
d="M580 1495v-139q0 -15 -9 -24t-24 -9h-109q-32 0 -32 33v139q0 33 32 33h109q15 0 24 -9t9 -24zM905 1055v-92v-2q0 -15 -18 -33l-580 -768v-8h576q32 0 32 -33v-86q0 -33 -32 -33h-760q-15 0 -24 9t-9 24v90q0 12 6 18l606 785v10h-557q-32 0 -32 33v86q0 32 32 32h727
q33 0 33 -32z" />
    <glyph glyph-name="Zcaron" unicode="&#x17d;" horiz-adv-x="1341" 
d="M690 1657h-74q-23 0 -41 18l-200 238q-12 17 -6.5 29t26.5 12h88q24 0 39 -21l125 -170h17l120 170q15 21 39 21h86q22 0 27.5 -12t-6.5 -29l-199 -238q-18 -18 -41 -18zM342 166h842q15 0 24 -9t9 -24v-100q0 -15 -9 -24t-24 -9h-1049q-15 0 -24 9t-9 24v82q0 25 21 51
l838 1145v14h-787q-15 0 -24 9t-9 24v98q0 15 9 24t24 9h991q15 0 24 -9t9 -24v-78q0 -30 -18 -53l-838 -1149v-10z" />
    <glyph glyph-name="zcaron" unicode="&#x17e;" horiz-adv-x="1007" 
d="M231 1552h88q25 0 39 -20l125 -170h17l121 170q14 20 38 20h86q22 0 27.5 -12t-6.5 -29l-199 -237q-19 -19 -41 -19h-73q-22 0 -41 19l-201 237q-12 17 -6.5 29t26.5 12zM905 1055v-92v-2q0 -15 -18 -33l-580 -768v-8h576q32 0 32 -33v-86q0 -33 -32 -33h-760
q-15 0 -24 9t-9 24v90q0 12 6 18l606 785v10h-557q-32 0 -32 33v86q0 32 32 32h727q33 0 33 -32z" />
    <glyph glyph-name="Acaron" unicode="&#x1cd;" horiz-adv-x="1363" 
d="M717 1659h-74q-23 0 -41 18l-201 238q-12 17 -6.5 29t27.5 12h88q24 0 39 -21l125 -170h16l121 170q15 21 39 21h86q21 0 26.5 -12t-6.5 -29l-198 -238q-18 -18 -41 -18zM979 461h-592l-156 -434q-12 -27 -38 -27h-119q-19 0 -26 10t-1 27l526 1425q12 27 39 27h142
q30 0 39 -27l526 -1425q6 -17 -1 -27t-26 -10h-118q-27 0 -39 27zM920 625l-232 643h-10l-232 -643h474z" />
    <glyph glyph-name="acaron" unicode="&#x1ce;" horiz-adv-x="1148" 
d="M309 1552h88q25 0 39 -20l125 -170h17l120 170q14 20 39 20h86q22 0 27.5 -12t-6.5 -29l-199 -237q-19 -19 -41 -19h-74q-22 0 -41 19l-200 237q-12 17 -6.5 29t26.5 12zM580 1112q192 0 300.5 -99t108.5 -272l6 -708q0 -33 -32 -33h-117q-15 0 -24 9t-9 24l2 139h-14
q-57 -88 -155 -139t-222 -51q-150 0 -241 78.5t-91 222.5q0 166 134.5 250.5t437.5 113.5q79 8 115 35.5t36 85.5q0 85 -65.5 137.5t-182.5 52.5q-96 0 -159.5 -40t-88.5 -113q-9 -27 -36 -27h-107q-17 0 -25.5 8.5t-5.5 22.5q36 140 148.5 221.5t286.5 81.5zM813 543l-8 4
q-64 -29 -158 -37q-195 -22 -287 -72t-92 -143q0 -76 51.5 -117t143.5 -41q143 0 242.5 82.5t109.5 179.5z" />
    <glyph glyph-name="Icaron" unicode="&#x1cf;" horiz-adv-x="735" 
d="M109 1956h88q24 0 39 -21l124 -170h17l121 170q15 21 39 21h86q21 0 26.5 -12t-6.5 -29l-199 -238q-18 -18 -41 -18h-73q-23 0 -41 18l-201 238q-12 17 -6.5 29t27.5 12zM457 1456l8 -1423q0 -15 -9 -24t-24 -9h-127q-15 0 -24 9t-9 24l7 1423q0 33 32 33h113q15 0 24 -9
t9 -24z" />
    <glyph glyph-name="icaron" unicode="&#x1d0;" horiz-adv-x="534" 
d="M8 1552h88q25 0 39 -20l125 -170h16l121 170q14 20 39 20h86q22 0 27.5 -12t-6.5 -29l-199 -237q-19 -19 -41 -19h-74q-22 0 -41 19l-200 237q-12 17 -6.5 29t26.5 12zM354 1055l6 -1022q0 -33 -32 -33h-123q-15 0 -24 9t-9 24l8 1022q0 32 33 32h109q32 0 32 -32z" />
    <glyph glyph-name="Ocaron" unicode="&#x1d1;" horiz-adv-x="1585" 
d="M532 1964h89q24 0 38 -20l125 -170h17l121 170q14 20 39 20h86q21 0 26.5 -12t-6.5 -29l-199 -237q-19 -19 -41 -19h-73q-22 0 -41 19l-201 237q-12 17 -6.5 29t26.5 12zM805 1513q197 0 353 -92.5t244.5 -263t88.5 -389.5q0 -226 -92 -408t-254.5 -284.5t-362.5 -102.5
q-196 0 -353 97.5t-246 274t-89 398.5q0 224 92.5 400t254.5 273t364 97zM793 1354q-111 0 -206 -40.5t-164.5 -116t-109 -189t-39.5 -252.5q0 -281 146 -451t375 -170q110 0 205 43.5t164.5 122t109 195t39.5 256.5q0 277 -145.5 439.5t-374.5 162.5z" />
    <glyph glyph-name="ocaron" unicode="&#x1d2;" 
d="M344 1552h88q25 0 39 -20l125 -170h16l121 170q14 20 39 20h86q22 0 27.5 -12t-6.5 -29l-199 -237q-19 -19 -41 -19h-74q-22 0 -41 19l-200 237q-12 17 -6.5 29t26.5 12zM612 1112q220 0 362 -154t142 -401q0 -167 -67 -300.5t-186 -208.5t-267 -75q-219 0 -362.5 159.5
t-143.5 406.5q0 253 147.5 413t374.5 160zM594 954q-144 0 -235 -108.5t-91 -290.5q0 -187 98.5 -303.5t245.5 -116.5q144 0 235 111t91 291q0 190 -97.5 303.5t-246.5 113.5z" />
    <glyph glyph-name="Ucaron" unicode="&#x1d3;" horiz-adv-x="1511" 
d="M494 1964h88q25 0 39 -20l124 -170h17l121 170q14 20 39 20h86q21 0 26.5 -12t-6.5 -29l-199 -237q-19 -19 -41 -19h-73q-22 0 -41 19l-201 237q-12 17 -6.5 29t27.5 12zM1360 1456l2 -815q1 -318 -167 -493t-441 -175t-440.5 175t-166.5 493l5 815q0 33 32 33h115
q15 0 24 -9t9 -24l2 -794q1 -262 113.5 -394.5t310.5 -132.5q199 0 308.5 132.5t109.5 394.5l4 794q0 33 32 33h115q15 0 24 -9t9 -24z" />
    <glyph glyph-name="ucaron" unicode="&#x1d4;" horiz-adv-x="1181" 
d="M330 1552h88q25 0 39 -20l125 -170h16l121 170q14 20 39 20h86q21 0 26.5 -12t-6.5 -29l-198 -237q-19 -19 -41 -19h-74q-22 0 -41 19l-201 237q-12 17 -6.5 29t27.5 12zM1022 1055l6 -1022q0 -15 -9 -24t-24 -9h-121q-32 0 -32 33l2 129h-15q-129 -189 -335 -189
q-159 0 -250.5 107t-91.5 307l4 668q0 32 32 32h109q33 0 33 -32l4 -625q3 -285 217 -285q118 0 195.5 84t97.5 248l4 578q0 32 33 32h108q33 0 33 -32z" />
    <glyph glyph-name="Gcaron" unicode="&#x1e6;" horiz-adv-x="1587" 
d="M831 1657h-73q-23 0 -41 18l-201 238q-12 17 -6.5 29t27.5 12h88q24 0 39 -21l124 -170h17l121 170q15 21 39 21h86q21 0 26.5 -12t-6.5 -29l-199 -238q-18 -18 -41 -18zM918 721h524q35 0 35 -39q-3 -154 -54 -285t-140.5 -224.5t-217.5 -146.5t-279 -53
q-197 0 -352.5 98t-242.5 273.5t-87 398.5q0 224 91.5 400t251.5 273t360 97q209 0 370 -105.5t230 -285.5q7 -17 0 -27t-25 -10l-110 -2q-28 0 -39 23q-69 118 -183.5 183t-254.5 65q-109 0 -202.5 -40.5t-161.5 -116t-107 -189t-39 -252.5q0 -282 146 -451.5t382 -169.5
q117 0 216.5 48.5t169.5 145t93 228.5h-374q-15 0 -24 9t-9 24v98q0 15 9 24t24 9z" />
    <glyph glyph-name="gcaron" unicode="&#x1e7;" horiz-adv-x="1247" 
d="M356 1552h88q25 0 39 -20l125 -170h17l120 170q14 20 39 20h86q22 0 27.5 -12t-6.5 -29l-199 -237q-19 -19 -41 -19h-73q-22 0 -41 19l-201 237q-12 17 -6.5 29t26.5 12zM547 1112q108 0 199 -47.5t149 -136.5l12 2l2 125q0 32 33 32h111q32 0 32 -32l11 -920
q3 -300 -130.5 -456t-367.5 -156q-155 0 -265.5 69.5t-170.5 198.5q-8 17 -1.5 28t25.5 11h109q27 0 41 -23q82 -124 262 -124q311 0 305 397v55h-10q-114 -135 -299 -135q-224 0 -364 152.5t-140 404.5q0 240 127.5 397.5t329.5 157.5zM594 954q-146 0 -236 -112t-90 -301
q0 -181 85.5 -281t238.5 -100q132 0 222 78t104 227v137q-12 164 -103.5 258t-220.5 94z" />
    <glyph glyph-name="Scommaaccent" unicode="&#x218;" horiz-adv-x="1341" 
d="M674 1513q106 0 197.5 -29t156.5 -79t110.5 -111.5t71.5 -132.5q13 -37 -26 -37h-111q-27 0 -39 23q-52 91 -146.5 148t-228.5 57q-151 0 -233 -59t-82 -156t81.5 -155t279.5 -118l79 -24q244 -75 353.5 -186t109.5 -267q0 -193 -144.5 -303.5t-389.5 -110.5
q-111 0 -206 24.5t-162 64.5t-118.5 93.5t-81 108t-43.5 111.5q-5 15 3.5 25t25.5 10h117q24 0 37 -25q49 -111 155 -179.5t279 -68.5q165 0 253.5 58t88.5 167q0 102 -87 174.5t-284 137.5l-84 26q-223 72 -332.5 165.5t-113.5 244.5q-4 184 142.5 293.5t371.5 109.5z
M754 -195v-73q0 -175 -107 -262q-20 -17 -45 -5q-28 19 -4 46q36 44 40.5 86.5t-26.5 72.5q-20 20 -20 39v96q0 15 9 24t24 9h96q15 0 24 -9t9 -24z" />
    <glyph glyph-name="scommaaccent" unicode="&#x219;" horiz-adv-x="1062" 
d="M532 1112q88 0 162.5 -23.5t124.5 -63.5t82.5 -86t48.5 -97q6 -17 -1.5 -27t-24.5 -10h-107q-27 0 -41 22q-81 127 -254 127q-95 0 -154 -40.5t-59 -106.5q0 -59 54.5 -93t183.5 -71l84 -25q183 -54 263.5 -129t80.5 -188q0 -150 -113.5 -239t-304.5 -89
q-180 0 -297 81.5t-162 215.5q-6 17 1 27t26 10h121q24 0 39 -24q76 -150 282 -150q104 0 165 37.5t61 114.5q0 65 -57 107t-191 81l-82 25q-162 46 -246 113.5t-84 183.5q0 140 113.5 228.5t285.5 88.5zM612 -195v-73q0 -176 -106 -262q-20 -17 -45 -5q-28 19 -4 46
q36 44 40.5 86.5t-26.5 72.5q-20 20 -20 39v96q0 33 32 33h97q32 0 32 -33z" />
    <glyph glyph-name="Tcommaaccent" unicode="&#x21a;" horiz-adv-x="1198" 
d="M1169 1456v-98q0 -33 -32 -33h-447l6 -1292q0 -33 -32 -33h-127q-15 0 -24 9t-9 24l6 1292h-449q-32 0 -32 33v98q0 33 32 33h1076q32 0 32 -33zM520 -291v96q0 15 9 24t24 9h96q15 0 24 -9t9 -24v-73q0 -175 -107 -262q-20 -17 -45 -5q-28 19 -4 46q36 44 41 86t-26 73
q-21 21 -21 39z" />
    <glyph glyph-name="tcommaaccent" unicode="&#x21b;" horiz-adv-x="716" 
d="M670 1055v-86q0 -15 -9 -24t-24 -9h-199l4 -903q0 -33 -32 -33h-123q-15 0 -24 9t-9 24l4 903h-164q-15 0 -24 9t-9 24v86q0 32 33 32h164l2 392q0 32 33 32h108q33 0 33 -32l2 -392h201q33 0 33 -32zM258 -291v96q0 15 9 24t24 9h96q15 0 24 -9t9 -24v-73
q0 -175 -107 -262q-20 -17 -45 -5q-28 19 -4 46q36 44 41 86t-26 73q-21 21 -21 39z" />
    <glyph glyph-name="Ecedilla" unicode="&#x228;" 
d="M666 0l-39 -125q71 -13 115 -57.5t44 -116.5q0 -80 -54.5 -132t-153.5 -52q-73 0 -132 30q-28 13 -18 43l10 33q9 31 43 19q57 -23 97 -23q39 0 66.5 22.5t27.5 53.5q0 40 -33.5 65.5t-103.5 26.5h-7q-38 0 -28 37l53 176h-373q-15 0 -24 9t-9 24l9 1423q0 33 32 33h891
q15 0 24 -9t9 -24v-98q0 -15 -9 -24t-24 -9h-745l4 -463h637q15 0 24 -9t9 -24v-100q0 -15 -9 -24t-24 -9h-637l4 -532h739q15 0 24 -9t9 -24v-98q0 -15 -9 -24t-24 -9h-415z" />
    <glyph glyph-name="ecedilla" unicode="&#x229;" horiz-adv-x="1163" 
d="M606 1110q153 0 261.5 -75.5t158.5 -200.5t45 -283q-3 -33 -35 -33h-766q1 -179 92.5 -282t245.5 -103q174 0 262 146q11 22 39 22h105q18 0 25 -10.5t1 -28.5q-58 -130 -163.5 -204t-243.5 -83l-31 -100q71 -13 115.5 -57.5t44.5 -116.5q0 -80 -55 -132t-154 -52
q-72 0 -131 30q-29 13 -19 43l11 33q9 31 43 19q57 -23 96 -23t66.5 22.5t27.5 53.5q0 40 -33.5 65.5t-103.5 26.5h-6q-39 0 -29 37l47 153q-195 26 -313.5 178.5t-118.5 381.5q0 256 143.5 414.5t372.5 158.5zM281 659h608q-5 126 -84 209.5t-213 83.5q-130 0 -209 -81
t-102 -212z" />
    <glyph glyph-name="dotlessj" unicode="&#x237;" horiz-adv-x="595" 
d="M391 1055l8 -1092q0 -208 -97.5 -307.5t-313.5 -106.5q-15 0 -24 9t-9 24v94q0 32 33 35q123 6 172 61t51 181l6 1102q0 32 33 32h108q33 0 33 -32z" />
    <glyph glyph-name="circumflex" unicode="&#x2c6;" horiz-adv-x="1062" 
d="M788 1255h-88q-23 0 -38 21l-125 170h-17l-121 -170q-15 -21 -39 -21h-86q-21 0 -26.5 12t6.5 29l199 238q18 18 41 18h73q23 0 41 -18l201 -238q12 -17 6.5 -29t-27.5 -12z" />
    <glyph glyph-name="caron" unicode="&#x2c7;" horiz-adv-x="1062" 
d="M272 1520h88q24 0 39 -21l127 -170h17l119 170q15 21 38 21h88q22 0 27.5 -12t-6.5 -29l-199 -238q-18 -18 -41 -18h-75q-23 0 -41 18l-199 238q-13 17 -7.5 29t25.5 12z" />
    <glyph glyph-name="breve" unicode="&#x2d8;" horiz-adv-x="1009" 
d="M774 1481q0 -129 -74 -194.5t-196 -65.5q-121 0 -193.5 65.5t-72.5 194.5q0 30 32 30h66q33 0 33 -30q0 -72 37.5 -108t97.5 -36q62 0 99.5 36t37.5 108q0 30 33 30h67q33 0 33 -30z" />
    <glyph glyph-name="dotaccent" unicode="&#x2d9;" horiz-adv-x="649" 
d="M412 1495v-139q0 -15 -9 -24t-24 -9h-109q-32 0 -32 33v139q0 33 32 33h109q15 0 24 -9t9 -24z" />
    <glyph glyph-name="ring" unicode="&#x2da;" horiz-adv-x="845" 
d="M422 1575q80 0 133 -51.5t53 -134.5q0 -82 -53.5 -133.5t-132.5 -51.5q-78 0 -131 51.5t-53 133.5q0 83 53 134.5t131 51.5zM422 1481q-38 0 -64 -25t-26 -67q0 -39 26.5 -65t63.5 -26q39 0 65.5 26t26.5 65q0 42 -26.5 67t-65.5 25z" />
    <glyph glyph-name="ogonek" unicode="&#x2db;" horiz-adv-x="1112" 
d="M682 88l33 -59q16 -29 -13 -45q-215 -126 -215 -232q0 -82 115 -82q44 0 88 8q35 3 35 -30v-62q0 -28 -29 -37q-55 -10 -102 -10q-111 0 -173.5 56t-62.5 151q0 188 279 354q29 16 45 -12z" />
    <glyph glyph-name="tilde" unicode="&#x2dc;" horiz-adv-x="1028" 
d="M399 1511q36 0 67 -14t52.5 -33.5t40 -39.5t38 -34t38.5 -14q46 0 53 70q3 33 35 33h43q15 0 23.5 -9t7.5 -24q-5 -81 -44 -135t-118 -54q-41 0 -76 21.5t-55.5 46.5t-48 46.5t-54.5 21.5q-51 0 -59 -70q-3 -33 -35 -33h-45q-15 0 -23.5 9t-7.5 24q5 84 45.5 136
t122.5 52z" />
    <glyph glyph-name="hungarumlaut" unicode="&#x2dd;" horiz-adv-x="1122" 
d="M537 1516l-197 -242q-19 -19 -41 -19h-45q-20 0 -26 11t3 28l144 240q11 22 39 22h104q21 0 26.5 -11.5t-7.5 -28.5zM842 1516l-197 -242q-19 -19 -41 -19h-45q-20 0 -25.5 11t3.5 28l143 240q11 22 39 22h104q21 0 26.5 -11.5t-7.5 -28.5z" />
    <glyph glyph-name="acutecomb" unicode="&#x301;" horiz-adv-x="0" 
d="M557 1516l-197 -242q-19 -19 -41 -19h-45q-20 0 -25.5 11t3.5 28l143 240q11 22 39 22h105q20 0 25.5 -11.5t-7.5 -28.5z" />
    <glyph glyph-name="dotbelowcomb" unicode="&#x323;" horiz-adv-x="0" 
d="M387 -201v-147q0 -15 -9 -24t-24 -9h-116q-15 0 -24 9t-9 24v147q0 15 9 24t24 9h116q15 0 24 -9t9 -24z" />
    <glyph glyph-name="commaaccent" unicode="&#x326;" horiz-adv-x="0" 
d="M451 -195v-73q0 -175 -107 -262q-20 -17 -45 -5q-28 19 -4 46q36 44 40.5 86.5t-26.5 72.5q-20 20 -20 39v96q0 15 9 24t24 9h96q15 0 24 -9t9 -24z" />
    <glyph glyph-name="Iocy" unicode="&#x401;" 
d="M557 1901v-140q0 -32 -33 -32h-94q-33 0 -33 32v140q0 32 33 32h94q33 0 33 -32zM854 1901v-140q0 -32 -33 -32h-94q-33 0 -33 32v140q0 32 33 32h94q33 0 33 -32zM342 164h739q15 0 24 -9t9 -24v-98q0 -15 -9 -24t-24 -9h-901q-15 0 -24 9t-9 24l9 1423q0 33 32 33h891
q15 0 24 -9t9 -24v-98q0 -15 -9 -24t-24 -9h-745l4 -463h637q15 0 24 -9t9 -24v-100q0 -15 -9 -24t-24 -9h-637z" />
    <glyph glyph-name="Gjecy" unicode="&#x403;" horiz-adv-x="1110" 
d="M854 1917l-197 -242q-18 -18 -41 -18h-45q-20 0 -25.5 11t3.5 28l143 239q12 23 39 23h105q20 0 25.5 -12t-7.5 -29zM1081 1456v-98q0 -33 -32 -33h-715l8 -1292q0 -15 -9 -24t-24 -9h-127q-32 0 -32 33l6 1423q0 33 32 33h861q32 0 32 -33z" />
    <glyph glyph-name="Ecy" unicode="&#x404;" horiz-adv-x="1519" 
d="M1276 451l108 -2q19 0 26 -10t1 -27q-31 -88 -85 -165t-130.5 -139.5t-182 -98.5t-227.5 -36q-204 0 -362 98t-244 272.5t-86 397.5q0 225 91.5 402t251 273.5t358.5 96.5q211 0 372 -108t234 -301q6 -17 -1.5 -27t-25.5 -10l-110 -2q-26 0 -39 25q-71 127 -185 195.5
t-256 68.5q-208 0 -346.5 -138t-158.5 -382h677q15 0 24 -9t9 -24v-84q0 -15 -9 -24t-24 -9h-680q20 -253 163 -401t364 -148q308 0 436 291q13 25 37 25z" />
    <glyph glyph-name="Dzecy" unicode="&#x405;" horiz-adv-x="1341" 
d="M674 1513q106 0 197.5 -29t156.5 -79t110.5 -111.5t71.5 -132.5q13 -37 -26 -37h-111q-27 0 -39 23q-52 91 -146.5 148t-228.5 57q-151 0 -233 -59t-82 -156t81.5 -155t279.5 -118l79 -24q244 -75 353.5 -186t109.5 -267q0 -193 -144.5 -303.5t-389.5 -110.5
q-111 0 -206 24.5t-162 64.5t-118.5 93.5t-81 108t-43.5 111.5q-5 15 3.5 25t25.5 10h117q24 0 37 -25q49 -111 155 -179.5t279 -68.5q165 0 253.5 58t88.5 167q0 102 -87 174.5t-284 137.5l-84 26q-223 72 -332.5 165.5t-113.5 244.5q-4 184 142.5 293.5t371.5 109.5z" />
    <glyph glyph-name="Icy" unicode="&#x406;" horiz-adv-x="735" 
d="M457 1456l8 -1423q0 -15 -9 -24t-24 -9h-127q-15 0 -24 9t-9 24l7 1423q0 33 32 33h113q15 0 24 -9t9 -24z" />
    <glyph glyph-name="Yicy" unicode="&#x407;" horiz-adv-x="735" 
d="M309 1901v-140q0 -32 -33 -32h-94q-32 0 -32 32v140q0 32 32 32h94q33 0 33 -32zM606 1901v-140q0 -32 -33 -32h-94q-33 0 -33 32v140q0 32 33 32h94q33 0 33 -32zM457 1456l8 -1423q0 -15 -9 -24t-24 -9h-127q-15 0 -24 9t-9 24l7 1423q0 33 32 33h113q15 0 24 -9t9 -24
z" />
    <glyph glyph-name="Jecy" unicode="&#x408;" horiz-adv-x="999" 
d="M725 1456l4 -790q1 -186 -34.5 -312.5t-112.5 -203.5t-186.5 -111t-268.5 -37q-15 0 -24 9t-9 24v96q0 15 9 24t24 9q229 6 321.5 115t94.5 372l2 805q0 15 9 24t24 9h114q15 0 24 -9t9 -24z" />
    <glyph glyph-name="Kjecy" unicode="&#x40c;" horiz-adv-x="1402" 
d="M489 1919l-196 -242q-18 -18 -41 -18h-45q-20 0 -26 11t3 28l144 239q12 23 39 23h104q20 0 25.5 -12t-7.5 -29zM549 776l770 -735q17 -15 12 -28t-28 -13h-168q-23 0 -39 16l-703 664h-55l4 -647q0 -15 -9 -24t-24 -9h-127q-32 0 -32 33l6 1423q0 33 32 33h113
q15 0 24 -9t9 -24l4 -610h55l692 627q16 16 39 16h154q22 0 26.5 -13t-12.5 -28z" />
    <glyph glyph-name="Ushortcy" unicode="&#x40e;" horiz-adv-x="1236" 
d="M608 1622q-121 0 -193.5 65.5t-72.5 194.5q0 31 33 31h65q33 0 33 -31q0 -72 37 -107.5t98 -35.5q62 0 99.5 35.5t37.5 107.5q0 31 33 31h68q33 0 33 -31q0 -129 -74 -194.5t-197 -65.5zM1051 1489h116q20 0 27.5 -11t-0.5 -28l-494 -1104q-82 -186 -207.5 -266
t-310.5 -80h-69q-15 0 -24 9t-9 24v94q0 15 9 24t24 9h37q138 0 230 54.5t150 182.5l2 4l-485 1049q-8 17 -1.5 28t26.5 11h116q28 0 37 -25l391 -852h11l387 852q9 25 37 25z" />
    <glyph glyph-name="Acy" unicode="&#x410;" horiz-adv-x="1363" 
d="M979 461h-592l-156 -434q-12 -27 -38 -27h-119q-19 0 -26 10t-1 27l526 1425q12 27 39 27h142q30 0 39 -27l526 -1425q6 -17 -1 -27t-26 -10h-118q-27 0 -39 27zM920 625l-232 643h-10l-232 -643h474z" />
    <glyph glyph-name="Becy" unicode="&#x411;" horiz-adv-x="1296" 
d="M338 848h391q214 0 343.5 -116t129.5 -308q0 -190 -130 -307t-343 -117h-549q-15 0 -24 9t-9 24l9 1423q0 33 32 33h848q15 0 24 -9t9 -24v-98q0 -15 -9 -24t-24 -9h-702zM340 160h379q146 0 225.5 70.5t79.5 193.5q0 124 -85.5 193t-244.5 69h-356z" />
    <glyph glyph-name="Vecy" unicode="&#x412;" horiz-adv-x="1374" 
d="M1057 788q108 -52 165.5 -143t57.5 -209q0 -188 -129.5 -312t-341.5 -124h-629q-15 0 -24 9t-9 24l9 1423q0 33 32 33h560q204 0 326 -109.5t122 -281.5q0 -93 -36 -173t-103 -137zM334 1329l2 -481h420q123 0 191.5 63t68.5 174t-77.5 177.5t-211.5 66.5h-393zM340 160
h457q144 0 223.5 70t79.5 190q0 122 -86.5 194t-241.5 72h-434z" />
    <glyph glyph-name="Gecy" unicode="&#x413;" horiz-adv-x="1110" 
d="M1081 1456v-98q0 -33 -32 -33h-715l8 -1292q0 -15 -9 -24t-24 -9h-127q-32 0 -32 33l6 1423q0 33 32 33h861q32 0 32 -33z" />
    <glyph glyph-name="Decy" unicode="&#x414;" horiz-adv-x="1673" 
d="M1393 164h153q15 0 23.5 -9t7.5 -24l-21 -467q-3 -33 -34 -33h-82q-15 0 -24 9t-9 24l-6 336h-1131l-4 -336q0 -15 -9 -24t-24 -9h-81q-32 0 -35 33l-21 467q-1 15 7.5 24t23.5 9h149q155 92 193 381l123 913q3 31 35 31h727q32 0 32 -33zM1202 164l2 1161h-467l-96 -760
q-40 -281 -135 -401h696z" />
    <glyph glyph-name="Iecy" unicode="&#x415;" 
d="M342 164h739q15 0 24 -9t9 -24v-98q0 -15 -9 -24t-24 -9h-901q-15 0 -24 9t-9 24l9 1423q0 33 32 33h891q15 0 24 -9t9 -24v-98q0 -15 -9 -24t-24 -9h-745l4 -463h637q15 0 24 -9t9 -24v-100q0 -15 -9 -24t-24 -9h-637z" />
    <glyph glyph-name="Zhecy" unicode="&#x416;" horiz-adv-x="2125" 
d="M1362 776l614 -735q12 -17 6.5 -29t-26.5 -12h-156q-23 0 -41 18l-553 662h-51l4 -647q0 -15 -9 -24t-24 -9h-127q-32 0 -32 33l2 647h-49l-553 -662q-18 -18 -41 -18h-156q-21 0 -26.5 12t6.5 29l614 735l-600 672q-15 17 -10.5 29t26.5 12h144q22 0 41 -19l555 -624h49
l2 610q0 15 9 24t24 9h114q15 0 24 -9t9 -24l4 -610h51l555 624q19 19 41 19h144q22 0 26.5 -12t-10.5 -29z" />
    <glyph glyph-name="Zecy" unicode="&#x417;" horiz-adv-x="1271" 
d="M899 793q138 -45 208.5 -141.5t70.5 -231.5q0 -92 -34 -170.5t-99.5 -139.5t-170.5 -95.5t-239 -34.5q-117 0 -214 30t-162.5 82t-106.5 117t-54 139q-6 35 31 35h117q31 0 37 -29q26 -104 118 -159.5t240 -55.5q172 0 267.5 78t95.5 213q0 136 -96.5 207.5t-291.5 71.5
h-147q-33 0 -33 32v86q0 15 9 24t24 9h147q172 0 258.5 65t86.5 177q0 113 -85 183.5t-237 70.5q-262 0 -338 -215q-9 -27 -37 -27h-104q-17 0 -25 10t-4 27q21 74 61 137t102 115.5t153 82.5t202 30q114 0 207 -32.5t152 -88t90.5 -127t31.5 -150.5q0 -110 -58 -195.5
t-173 -129.5z" />
    <glyph glyph-name="Iicy" unicode="&#x418;" horiz-adv-x="1476" 
d="M1124 1489h172q15 0 24 -9t9 -24l-6 -1423q0 -15 -9 -24t-24 -9h-110q-15 0 -24 9t-9 24l-6 1214l-735 -1224q-12 -23 -39 -23h-179q-32 0 -32 33l-9 1423q0 15 9 24t24 9h125q15 0 24 -9t9 -24l-6 -1251l753 1261q11 23 39 23z" />
    <glyph glyph-name="Iishortcy" unicode="&#x419;" horiz-adv-x="1476" 
d="M745 1622q-121 0 -193.5 65.5t-72.5 194.5q0 31 33 31h66q32 0 32 -31q0 -72 37 -107.5t98 -35.5q62 0 100 35.5t38 107.5q0 31 32 31h68q33 0 33 -31q0 -129 -74 -194.5t-197 -65.5zM1124 1489h172q15 0 24 -9t9 -24l-6 -1423q0 -15 -9 -24t-24 -9h-110q-15 0 -24 9
t-9 24l-6 1214l-735 -1224q-12 -23 -39 -23h-179q-32 0 -32 33l-9 1423q0 15 9 24t24 9h125q15 0 24 -9t9 -24l-6 -1251l753 1261q11 23 39 23z" />
    <glyph glyph-name="Kacy" unicode="&#x41a;" horiz-adv-x="1402" 
d="M549 776l770 -735q17 -15 12 -28t-28 -13h-168q-23 0 -39 16l-703 664h-55l4 -647q0 -15 -9 -24t-24 -9h-127q-32 0 -32 33l6 1423q0 33 32 33h113q15 0 24 -9t9 -24l4 -610h55l692 627q16 16 39 16h154q22 0 26.5 -13t-12.5 -28z" />
    <glyph glyph-name="Elcy" unicode="&#x41b;" horiz-adv-x="1480" 
d="M1300 0h-124q-15 0 -24 9t-9 24l4 1292h-516l-60 -758q-25 -302 -138 -430t-374 -135q-32 0 -32 33v94q0 33 32 33q177 9 249.5 99t90.5 284l78 913q3 31 33 31h784q15 0 24 -9t9 -24l6 -1423q0 -15 -9 -24t-24 -9z" />
    <glyph glyph-name="Emcy" unicode="&#x41c;" horiz-adv-x="1785" 
d="M1604 0h-119q-15 0 -24 9t-9 24l-20 1253l-439 -1259q-12 -27 -39 -27h-118q-28 0 -37 27l-447 1286l-18 -1280q0 -15 -9 -24t-24 -9h-121q-15 0 -24 9t-9 24l46 1423q0 33 32 33h197q27 0 39 -27l434 -1237l434 1237q12 27 39 27h193q32 0 32 -33l43 -1423
q0 -33 -32 -33z" />
    <glyph glyph-name="Ency" unicode="&#x41d;" horiz-adv-x="1488" 
d="M1307 0h-127q-15 0 -24 9t-9 24l2 663h-811l2 -663q0 -15 -9 -24t-24 -9h-127q-15 0 -24 9t-9 24l9 1423q0 33 32 33h113q15 0 24 -9t9 -24l2 -594h815l2 594q0 15 9 24t24 9h114q15 0 24 -9t9 -24l6 -1423q0 -33 -32 -33z" />
    <glyph glyph-name="Ocy" unicode="&#x41e;" horiz-adv-x="1585" 
d="M805 1513q197 0 353 -92.5t244.5 -263t88.5 -389.5q0 -226 -92 -408t-254.5 -284.5t-362.5 -102.5q-196 0 -353 97.5t-246 274t-89 398.5q0 224 92.5 400t254.5 273t364 97zM793 1354q-111 0 -206 -40.5t-164.5 -116t-109 -189t-39.5 -252.5q0 -281 146 -451t375 -170
q110 0 205 43.5t164.5 122t109 195t39.5 256.5q0 277 -145.5 439.5t-374.5 162.5z" />
    <glyph glyph-name="Pecy" unicode="&#x41f;" horiz-adv-x="1445" 
d="M1266 0h-127q-15 0 -24 9t-9 24l6 1290h-778l8 -1290q0 -15 -9 -24t-24 -9h-127q-32 0 -32 33l6 1423q0 33 32 33h1069q15 0 24 -9t9 -24l8 -1423q0 -33 -32 -33z" />
    <glyph glyph-name="Ercy" unicode="&#x420;" horiz-adv-x="1343" 
d="M188 1489h566q222 0 358.5 -123t136.5 -322q0 -200 -137.5 -331t-357.5 -131h-416l4 -549q0 -15 -9 -24t-24 -9h-129q-15 0 -24 9t-9 24l9 1423q0 33 32 33zM338 739h401q156 0 243 77.5t87 209.5q0 137 -91 220t-239 83h-405z" />
    <glyph glyph-name="Escy" unicode="&#x421;" horiz-adv-x="1519" 
d="M795 1513q211 0 372 -108t234 -301q6 -17 -1.5 -27t-25.5 -10l-110 -2q-26 0 -39 25q-71 127 -185 195.5t-256 68.5q-225 0 -367.5 -160t-142.5 -438q0 -282 146 -451.5t383 -169.5q308 0 436 291q13 25 37 25l108 -2q19 0 26 -10t1 -27q-31 -88 -85 -165t-130.5 -139.5
t-182 -98.5t-227.5 -36q-204 0 -362 98t-244 272.5t-86 397.5q0 225 91.5 402t251 273.5t358.5 96.5z" />
    <glyph glyph-name="Tecy" unicode="&#x422;" horiz-adv-x="1198" 
d="M1169 1456v-98q0 -33 -32 -33h-447l6 -1292q0 -33 -32 -33h-127q-15 0 -24 9t-9 24l6 1292h-449q-32 0 -32 33v98q0 33 32 33h1076q32 0 32 -33z" />
    <glyph glyph-name="Ucy" unicode="&#x423;" horiz-adv-x="1236" 
d="M1051 1489h116q20 0 27.5 -11t-0.5 -28l-494 -1104q-82 -186 -207.5 -266t-310.5 -80h-69q-15 0 -24 9t-9 24v94q0 15 9 24t24 9h37q138 0 230 54.5t150 182.5l2 4l-485 1049q-8 17 -1.5 28t26.5 11h116q28 0 37 -25l391 -852h11l387 852q9 25 37 25z" />
    <glyph glyph-name="Efcy" unicode="&#x424;" horiz-adv-x="1642" 
d="M1548 766q0 -263 -175 -430t-462 -191v-137q0 -33 -32 -33h-127q-15 0 -24 9t-9 24v137q-285 26 -455 188t-170 415q0 251 172.5 409.5t458.5 183.5v136q0 32 33 32h114q33 0 33 -32v-134q294 -20 468.5 -174t174.5 -403zM907 1182l4 -873q216 20 336.5 136t120.5 309
q0 188 -122 298.5t-339 129.5zM274 754q0 -190 119 -305.5t328 -137.5l2 871q-212 -22 -330.5 -132.5t-118.5 -295.5z" />
    <glyph glyph-name="Hacy" unicode="&#x425;" horiz-adv-x="1462" 
d="M1317 0h-146q-24 0 -38 20l-406 609l-405 -609q-14 -20 -39 -20h-140q-21 0 -27 12t5 27l508 733l-453 678q-11 17 -5 28t26 11h125q23 0 38 -21l392 -571l391 571q15 21 39 21h116q20 0 26 -12t-5 -27l-471 -692l491 -719q11 -15 5 -27t-27 -12z" />
    <glyph glyph-name="Tsecy" unicode="&#x426;" horiz-adv-x="1513" 
d="M1298 164h156q15 0 23.5 -9t7.5 -24l-21 -467q-3 -33 -34 -33h-82q-15 0 -24 9t-9 24l-6 336h-1127q-32 0 -32 33l6 1423q0 33 32 33h113q15 0 24 -9t9 -24l8 -1292h764l6 1292q0 15 9 24t24 9h112q15 0 24 -9t9 -24z" />
    <glyph glyph-name="Checy" unicode="&#x427;" horiz-adv-x="1376" 
d="M1196 0h-127q-15 0 -24 9t-9 24l2 614q-192 -166 -458 -166q-222 0 -354.5 134t-131.5 376l4 465q0 15 9 24t24 9h113q32 0 32 -33v-452q0 -172 87.5 -261.5t252.5 -89.5q239 3 424 185l2 618q0 15 9 24t24 9h113q15 0 24 -9t9 -24l8 -1423q0 -15 -9 -24t-24 -9z" />
    <glyph glyph-name="Shacy" unicode="&#x428;" horiz-adv-x="1970" 
d="M1817 1456l6 -1423q0 -15 -9 -24t-24 -9h-1610q-15 0 -24 9t-9 24l7 1423q0 33 32 33h115q15 0 24 -9t9 -24l6 -1292h549l6 1292q0 15 9 24t24 9h114q15 0 24 -9t9 -24l6 -1292h549l6 1292q0 15 9 24t24 9h115q15 0 24 -9t9 -24z" />
    <glyph glyph-name="Shchacy" unicode="&#x429;" horiz-adv-x="2033" 
d="M1823 164h151q15 0 23.5 -9t7.5 -24l-18 -467q-3 -33 -35 -33h-84q-15 0 -24 9t-9 24l-6 336h-1649q-15 0 -24 9t-9 24l7 1423q0 33 32 33h115q15 0 24 -9t9 -24l6 -1292h549l6 1292q0 15 9 24t24 9h114q15 0 24 -9t9 -24l6 -1292h549l6 1292q0 15 9 24t24 9h115
q15 0 24 -9t9 -24z" />
    <glyph glyph-name="Hardsigncy" unicode="&#x42a;" horiz-adv-x="1466" 
d="M506 848h391q215 0 345 -116t130 -308q0 -190 -130.5 -307t-344.5 -117h-547q-15 0 -24 9t-9 24l7 1292h-265q-32 0 -32 33v98q0 33 32 33h412q15 0 24 -9t9 -24zM510 160h377q147 0 226 70.5t79 193.5q0 124 -85 193t-243 69h-356z" />
    <glyph glyph-name="Yerucy" unicode="&#x42b;" horiz-adv-x="1718" 
d="M338 848h391q214 0 343.5 -116t129.5 -308q0 -190 -130 -307t-343 -117h-549q-15 0 -24 9t-9 24l9 1423q0 33 32 33h113q15 0 24 -9t9 -24zM1563 1456l6 -1423q0 -15 -9 -24t-24 -9h-125q-15 0 -24 9t-9 24l4 1423q0 15 9 24t24 9h115q15 0 24 -9t9 -24zM340 160h379
q146 0 225.5 70.5t79.5 193.5q0 124 -85.5 193t-244.5 69h-356z" />
    <glyph glyph-name="Softsigncy" unicode="&#x42c;" horiz-adv-x="1296" 
d="M338 848h391q214 0 343.5 -116t129.5 -308q0 -190 -130 -307t-343 -117h-549q-15 0 -24 9t-9 24l9 1423q0 33 32 33h113q15 0 24 -9t9 -24zM340 160h379q146 0 225.5 70.5t79.5 193.5q0 124 -85.5 193t-244.5 69h-356z" />
    <glyph glyph-name="Ereversedcy" unicode="&#x42d;" horiz-adv-x="1519" 
d="M725 1513q149 0 278.5 -56.5t222.5 -157t146 -245t53 -313.5q0 -223 -86 -397.5t-244 -272.5t-362 -98q-122 0 -227.5 36t-181.5 98.5t-130 139.5t-85 165q-13 37 26 37l109 2q24 0 37 -25q128 -291 436 -291q220 0 363 148t163 401h-680q-15 0 -24 9t-9 24v84q0 15 9 24
t24 9h678q-20 244 -159 382t-347 138q-142 0 -255.5 -68.5t-184.5 -195.5q-13 -25 -39 -25l-111 2q-17 0 -24.5 10t-1.5 27q75 193 235.5 301t370.5 108z" />
    <glyph glyph-name="Iucy" unicode="&#x42e;" horiz-adv-x="1984" 
d="M1260 1513q281 0 455.5 -202t174.5 -543q0 -234 -84.5 -415.5t-232.5 -280.5t-334 -99q-261 0 -435 188.5t-196 502.5h-270l4 -631q0 -15 -9 -24t-24 -9h-127q-32 0 -32 33l6 1423q0 33 32 33h113q15 0 24 -9t9 -24l4 -629h270q25 314 204.5 500t447.5 186zM1249 135
q211 0 336 170t125 447q0 271 -126 436.5t-337 165.5q-210 0 -335.5 -164t-125.5 -434q0 -279 126 -450t337 -171z" />
    <glyph glyph-name="Iacy" unicode="&#x42f;" horiz-adv-x="1345" 
d="M1165 0h-129q-32 0 -32 33l4 624h-301l-431 -637q-14 -20 -38 -20h-156q-20 0 -26.5 12t5.5 27l441 625q-180 27 -284.5 141.5t-104.5 275.5q0 180 130 294t347 114h567q15 0 24 -9t9 -24l8 -1423q0 -15 -9 -24t-24 -9zM1008 817l4 512h-402q-148 0 -232.5 -70.5
t-84.5 -191.5q0 -117 81 -183.5t236 -66.5h398z" />
    <glyph glyph-name="acy" unicode="&#x430;" horiz-adv-x="1148" 
d="M580 1112q192 0 300.5 -99t108.5 -272l6 -708q0 -33 -32 -33h-117q-15 0 -24 9t-9 24l2 139h-14q-57 -88 -155 -139t-222 -51q-150 0 -241 78.5t-91 222.5q0 166 134.5 250.5t437.5 113.5q79 8 115 35.5t36 85.5q0 85 -65.5 137.5t-182.5 52.5q-96 0 -159.5 -40
t-88.5 -113q-9 -27 -36 -27h-107q-17 0 -25.5 8.5t-5.5 22.5q36 140 148.5 221.5t286.5 81.5zM813 543l-8 4q-64 -29 -158 -37q-195 -22 -287 -72t-92 -143q0 -76 51.5 -117t143.5 -41q143 0 242.5 82.5t109.5 179.5z" />
    <glyph glyph-name="becy" unicode="&#x431;" horiz-adv-x="1245" 
d="M668 1065q212 0 349.5 -157t137.5 -400q0 -152 -58.5 -272t-174.5 -191.5t-273 -71.5q-155 0 -268.5 70.5t-170.5 194t-56 286.5l4 394q6 610 585 610q143 0 240 20q37 6 37 -28v-95q0 -27 -29 -36q-95 -21 -239 -21q-213 0 -316.5 -101.5t-103.5 -310.5v-24l12 -2
q64 62 150 98.5t174 36.5zM653 905q-129 0 -218.5 -87t-104.5 -234v-80q0 -174 90.5 -272.5t232.5 -98.5q151 0 236.5 105t85.5 274q0 173 -90.5 283t-231.5 110z" />
    <glyph glyph-name="vecy" unicode="&#x432;" horiz-adv-x="1146" 
d="M870 563q91 -32 139 -99.5t48 -162.5q0 -135 -99.5 -218t-259.5 -83h-514q-32 0 -32 33l8 1022q0 32 33 32h446q159 0 254.5 -87t95.5 -214q0 -68 -31.5 -126t-87.5 -97zM334 928l2 -316h299q83 0 132.5 44.5t49.5 115.5q0 68 -48.5 112t-135.5 44h-299zM340 160h305
q119 0 175.5 43t56.5 114q0 76 -58 120t-174 44h-307z" />
    <glyph glyph-name="gecy" unicode="&#x433;" horiz-adv-x="987" 
d="M930 1055v-101q0 -32 -33 -32h-563l6 -889q0 -15 -9 -24t-24 -9h-123q-32 0 -32 33l8 1022q0 32 33 32h704q33 0 33 -32z" />
    <glyph glyph-name="decy" unicode="&#x434;" horiz-adv-x="1382" 
d="M1114 164h154q15 0 23 -9t7 -24l-18 -467q-3 -33 -35 -33h-76q-32 0 -32 33l-4 336h-883l-4 -336q0 -15 -9 -24t-24 -9h-74q-32 0 -35 33l-20 467q-1 15 7.5 24t23.5 9h116q90 72 105 221l78 672q3 30 35 30h626q33 0 33 -32zM928 164l4 758h-375l-55 -514
q-15 -152 -66 -244h492z" />
    <glyph glyph-name="iecy" unicode="&#x435;" horiz-adv-x="1163" 
d="M606 1110q153 0 261.5 -75.5t158.5 -200.5t45 -283q-3 -33 -35 -33h-766q1 -179 92.5 -282t245.5 -103q174 0 262 146q11 22 39 22h105q18 0 25 -10.5t1 -28.5q-61 -139 -177 -214t-269 -75q-223 0 -363.5 156.5t-140.5 407.5q0 256 143.5 414.5t372.5 158.5zM592 952
q-130 0 -209 -81t-102 -212h608q-5 126 -84 209.5t-213 83.5z" />
    <glyph glyph-name="zhecy" unicode="&#x436;" horiz-adv-x="1701" 
d="M1147 561l461 -520q14 -17 8.5 -29t-27.5 -12h-164q-23 0 -41 18l-397 476h-47l2 -461q0 -15 -9 -24t-24 -9h-118q-15 0 -24 9t-9 24l2 461h-45l-400 -476q-18 -18 -41 -18h-163q-22 0 -27.5 12t8.5 29l463 520l-451 486q-14 17 -8.5 28.5t27.5 11.5h153q23 0 41 -18
l398 -448h47l2 434q0 32 33 32h106q33 0 33 -32l2 -434h49l397 448q18 18 41 18h154q22 0 27 -11.5t-9 -28.5z" />
    <glyph glyph-name="zecy" unicode="&#x437;" horiz-adv-x="1079" 
d="M750 569q120 -31 179.5 -101.5t59.5 -170.5q0 -140 -120.5 -232t-333.5 -92q-181 0 -296.5 76.5t-142.5 188.5q-9 34 29 34h113q27 0 36 -26q54 -123 265 -123q131 0 201.5 48t70.5 132q0 186 -291 186h-106q-15 0 -24 9t-9 24v78q0 15 9 24t24 9h106q125 0 188.5 47
t63.5 127q0 74 -64 117t-178 43q-177 0 -241 -121q-13 -25 -37 -25h-102q-39 0 -29 37q41 111 147.5 182.5t280.5 71.5q173 0 283 -85.5t110 -205.5q0 -85 -48.5 -151.5t-143.5 -100.5z" />
    <glyph glyph-name="iicy" unicode="&#x438;" horiz-adv-x="1247" 
d="M1063 0h-115q-15 0 -24 9t-9 24l5 835l-533 -845q-14 -23 -41 -23h-162q-32 0 -32 33l6 1022q0 32 32 32h103q33 0 33 -32l4 -832l528 842q14 22 41 22h158q33 0 33 -32l6 -1022q0 -15 -9 -24t-24 -9z" />
    <glyph glyph-name="iishortcy" unicode="&#x439;" horiz-adv-x="1247" 
d="M629 1229q-121 0 -194 65.5t-73 194.5q0 31 33 31h66q33 0 33 -31q0 -72 37 -107.5t98 -35.5q62 0 99.5 35.5t37.5 107.5q0 31 33 31h67q33 0 33 -31q0 -129 -74 -194.5t-196 -65.5zM1063 0h-115q-15 0 -24 9t-9 24l5 835l-533 -845q-14 -23 -41 -23h-162q-32 0 -32 33
l6 1022q0 32 32 32h103q33 0 33 -32l4 -832l528 842q14 22 41 22h158q33 0 33 -32l6 -1022q0 -15 -9 -24t-24 -9z" />
    <glyph glyph-name="kacy" unicode="&#x43a;" horiz-adv-x="1163" 
d="M559 561l506 -520q15 -17 10.5 -29t-26.5 -12h-162q-25 0 -41 16l-457 478h-51l2 -461q0 -15 -9 -24t-24 -9h-123q-32 0 -32 33l8 1022q0 32 33 32h108q33 0 33 -32l2 -434h53l457 450q16 16 41 16h151q22 0 27 -12.5t-10 -27.5z" />
    <glyph glyph-name="elcy" unicode="&#x43b;" horiz-adv-x="1243" 
d="M1057 0h-121q-15 0 -24 9t-9 24l6 889h-413l-37 -514q-15 -208 -105.5 -304t-263.5 -104q-15 0 -24 9t-9 24v96q0 32 33 35q179 15 197 221l57 672q3 30 33 30h674q32 0 32 -32l7 -1022q0 -15 -9 -24t-24 -9z" />
    <glyph glyph-name="emcy" unicode="&#x43c;" horiz-adv-x="1517" 
d="M1376 0h-110q-15 0 -24 9t-9 24l-19 891l-352 -897q-9 -27 -37 -27h-127q-30 0 -39 27l-356 921l-20 -915q0 -15 -9 -24t-24 -9h-107q-15 0 -23 9t-7 24l37 1018q2 17 9.5 24.5t24.5 7.5h191q28 0 37 -26l350 -887l348 887q9 26 37 26h186q32 0 35 -32l39 -1018
q1 -15 -7.5 -24t-23.5 -9z" />
    <glyph glyph-name="ency" unicode="&#x43d;" horiz-adv-x="1239" 
d="M1055 0h-123q-15 0 -24 9t-9 24l2 454h-563l2 -454q0 -15 -9 -24t-24 -9h-123q-32 0 -32 33l8 1022q0 32 33 32h108q33 0 33 -32l2 -404h567l2 404q0 32 33 32h111q32 0 32 -32l6 -1022q0 -33 -32 -33z" />
    <glyph glyph-name="ocy" unicode="&#x43e;" 
d="M612 1112q220 0 362 -154t142 -401q0 -167 -67 -300.5t-186 -208.5t-267 -75q-219 0 -362.5 159.5t-143.5 406.5q0 253 147.5 413t374.5 160zM594 954q-144 0 -235 -108.5t-91 -290.5q0 -187 98.5 -303.5t245.5 -116.5q144 0 235 111t91 291q0 190 -97.5 303.5
t-246.5 113.5z" />
    <glyph glyph-name="pecy" unicode="&#x43f;" horiz-adv-x="1218" 
d="M1034 0h-123q-32 0 -32 33l6 889h-551l6 -889q0 -15 -9 -24t-24 -9h-123q-32 0 -32 33l8 1022q0 32 33 32h833q33 0 33 -32l8 -1022q0 -15 -9 -24t-24 -9z" />
    <glyph glyph-name="ercy" unicode="&#x440;" horiz-adv-x="1245" 
d="M698 1112q203 0 330 -156.5t127 -402.5q0 -257 -137 -418.5t-352 -161.5q-190 0 -318 131h-10l2 -522q0 -15 -9 -24t-24 -9h-123q-32 0 -32 33l8 1473q0 32 33 32h108q33 0 33 -32l2 -125h12q58 90 151 136t199 46zM651 954q-130 0 -221 -93t-104 -257v-137
q14 -162 104 -248t223 -86q151 0 236.5 108.5t85.5 297.5q0 192 -89 303.5t-235 111.5z" />
    <glyph glyph-name="escy" unicode="&#x441;" horiz-adv-x="1089" 
d="M590 1112q171 0 288.5 -90.5t157.5 -222.5q4 -17 -3.5 -27t-24.5 -10h-107q-24 0 -39 24q-80 166 -270 166q-153 0 -238.5 -105.5t-85.5 -309.5q0 -197 86.5 -299.5t243.5 -102.5q186 0 258 148q15 24 39 24h106q18 0 25.5 -10t1.5 -27q-47 -127 -161.5 -212t-282.5 -85
q-225 0 -359.5 153.5t-134.5 403.5q0 264 137.5 423t362.5 159z" />
    <glyph glyph-name="tecy" unicode="&#x442;" horiz-adv-x="1075" 
d="M1016 1055v-101q0 -32 -33 -32h-358l6 -889q0 -15 -9 -24t-24 -9h-123q-15 0 -24 9t-9 24l7 889h-359q-33 0 -33 32v101q0 32 33 32h893q33 0 33 -32z" />
    <glyph glyph-name="ucy" unicode="&#x443;" horiz-adv-x="1075" 
d="M887 1087h104q36 0 27 -36l-410 -1174q-64 -182 -168.5 -255t-289.5 -73h-44q-32 0 -32 33v94q0 33 32 33h3q138 0 210.5 46t112.5 159l14 37l-391 1100q-9 36 27 36h106q28 0 37 -26l297 -860h15l311 860q12 26 39 26z" />
    <glyph glyph-name="efcy" unicode="&#x444;" horiz-adv-x="1540" 
d="M1448 557q0 -243 -154 -402t-430 -186l2 -387q0 -33 -32 -33h-123q-15 0 -24 9t-9 24l2 387q-278 21 -434 176t-156 394q0 241 156 397t436 180l2 379q0 15 9 24t24 9h110q15 0 24 -9t9 -24l2 -377q277 -21 431.5 -172.5t154.5 -388.5zM260 555q0 -173 109.5 -288.5
t310.5 -139.5l2 838q-200 -18 -311 -129.5t-111 -280.5zM862 963l2 -838q198 21 306 132t108 280q0 173 -109 287.5t-307 138.5z" />
    <glyph glyph-name="hacy" unicode="&#x445;" horiz-adv-x="1116" 
d="M674 539l344 -500q11 -15 4.5 -27t-27.5 -12h-131q-25 0 -39 20l-274 406l-277 -406q-14 -20 -38 -20h-130q-20 0 -26 12t6 27l373 524l-330 486q-11 17 -5 27.5t26 10.5h122q25 0 39 -20l271 -393l272 393q14 20 39 20h113q21 0 27 -11.5t-5 -26.5z" />
    <glyph glyph-name="tsecy" unicode="&#x446;" horiz-adv-x="1271" 
d="M1059 164h123q15 0 23 -9t7 -24l-20 -467q-3 -33 -35 -33h-74q-32 0 -32 33l-7 336h-860q-32 0 -32 33l8 1022q0 32 33 32h108q33 0 33 -32l6 -891h530l7 891q0 32 32 32h111q33 0 33 -32z" />
    <glyph glyph-name="checy" unicode="&#x447;" horiz-adv-x="1124" 
d="M938 0h-121q-15 0 -24 9t-9 24l2 401q-136 -117 -327 -117q-174 0 -271.5 102.5t-97.5 289.5l4 346q0 32 33 32h111q32 0 32 -32l-2 -301q-3 -265 234 -265q169 0 286 127l3 439q0 32 32 32h109q33 0 33 -32l6 -1022q0 -15 -9 -24t-24 -9z" />
    <glyph glyph-name="shacy" unicode="&#x448;" horiz-adv-x="1857" 
d="M1698 1055l6 -1022q0 -15 -9 -24t-24 -9h-1487q-32 0 -32 33l8 1022q0 32 33 32h108q33 0 33 -32l6 -891h496l6 891q0 32 32 32h109q33 0 33 -32l6 -891h496l6 891q0 32 32 32h109q33 0 33 -32z" />
    <glyph glyph-name="shchacy" unicode="&#x449;" horiz-adv-x="1857" 
d="M1704 164h102q15 0 23.5 -9t7.5 -24l-20 -467q-3 -33 -35 -33h-74q-15 0 -24 9t-9 24l-6 336h-1485q-32 0 -32 33l8 1022q0 32 33 32h108q33 0 33 -32l6 -891h496l6 891q0 32 32 32h109q33 0 33 -32l6 -891h496l6 891q0 32 32 32h109q33 0 33 -32z" />
    <glyph glyph-name="hardsigncy" unicode="&#x44a;" horiz-adv-x="1306" 
d="M481 688h340q176 0 284.5 -97.5t108.5 -244.5t-111 -246.5t-282 -99.5h-489q-15 0 -24 9t-9 24l6 889h-215q-33 0 -33 32v101q0 32 33 32h356q33 0 33 -32zM485 160h326q104 0 163.5 53t59.5 133q0 79 -65.5 130.5t-182.5 51.5h-303z" />
    <glyph glyph-name="yerucy" unicode="&#x44b;" horiz-adv-x="1587" 
d="M336 688h340q176 0 284.5 -97.5t108.5 -244.5t-111 -246.5t-282 -99.5h-492q-32 0 -32 33l8 1022q0 32 33 32h108q33 0 33 -32zM1427 1055l9 -1022q0 -15 -9 -24t-24 -9h-123q-15 0 -24 9t-9 24l6 1022q0 32 33 32h109q32 0 32 -32zM340 160h326q104 0 163.5 53t59.5 133
q0 78 -66 130t-182 52h-303z" />
    <glyph glyph-name="softsigncy" unicode="&#x44c;" horiz-adv-x="1159" 
d="M336 688h340q176 0 284.5 -97.5t108.5 -244.5t-111 -246.5t-282 -99.5h-492q-32 0 -32 33l8 1022q0 32 33 32h108q33 0 33 -32zM340 160h326q104 0 163.5 53t59.5 133q0 78 -66 130t-182 52h-303z" />
    <glyph glyph-name="ereversedcy" unicode="&#x44d;" horiz-adv-x="1134" 
d="M545 1112q225 0 362 -158.5t137 -423.5q0 -250 -134.5 -403.5t-358.5 -153.5q-168 0 -283 85t-162 212q-6 17 1.5 27t25.5 10h107q24 0 39 -24q72 -148 258 -148q143 0 227.5 85t99.5 249h-428q-15 0 -24 9t-9 24v82q0 32 33 32h426q-17 165 -99.5 250.5t-219.5 85.5
q-191 0 -271 -166q-15 -24 -39 -24h-106q-17 0 -25.5 7t-5.5 19q36 136 155 230t294 94z" />
    <glyph glyph-name="iucy" unicode="&#x44e;" horiz-adv-x="1617" 
d="M1042 1112q211 0 347.5 -154t136.5 -401q0 -166 -65 -300t-179.5 -209t-255.5 -75q-192 0 -325 135.5t-156 352.5h-207l2 -428q0 -15 -9 -24t-24 -9h-123q-32 0 -32 33l8 1022q0 32 33 32h108q33 0 33 -32l2 -430h209q25 219 162 353t335 134zM1042 135q133 0 218.5 111
t85.5 291q0 190 -91 303.5t-231 113.5q-135 0 -220 -108.5t-85 -290.5q0 -187 92 -303.5t231 -116.5z" />
    <glyph glyph-name="iacy" unicode="&#x44f;" horiz-adv-x="1191" 
d="M1008 0h-123q-15 0 -24 9t-9 24l2 385h-270l-258 -398q-14 -20 -39 -20h-148q-21 0 -26.5 12t6.5 27l278 397q-114 34 -179.5 118t-65.5 198q0 143 107.5 239t272.5 96h467q33 0 33 -32l8 -1022q0 -33 -32 -33zM856 578l2 350h-315q-97 0 -154 -50t-57 -126
q0 -77 62.5 -125.5t172.5 -48.5h289z" />
    <glyph glyph-name="iocy" unicode="&#x451;" horiz-adv-x="1163" 
d="M524 1497v-139q0 -33 -32 -33h-95q-32 0 -32 33v139q0 33 32 33h95q32 0 32 -33zM821 1497v-139q0 -15 -9 -24t-24 -9h-94q-32 0 -32 33v139q0 33 32 33h94q15 0 24 -9t9 -24zM606 1110q153 0 261.5 -75.5t158.5 -200.5t45 -283q-3 -33 -35 -33h-766q1 -179 92.5 -282
t245.5 -103q174 0 262 146q11 22 39 22h105q18 0 25 -10.5t1 -28.5q-61 -139 -177 -214t-269 -75q-223 0 -363.5 156.5t-140.5 407.5q0 256 143.5 414.5t372.5 158.5zM592 952q-130 0 -209 -81t-102 -212h608q-5 126 -84 209.5t-213 83.5z" />
    <glyph glyph-name="gjecy" unicode="&#x453;" horiz-adv-x="987" 
d="M739 1516l-196 -242q-19 -19 -41 -19h-45q-20 0 -26 11t3 28l144 240q11 22 38 22h105q20 0 25.5 -11.5t-7.5 -28.5zM930 1055v-101q0 -32 -33 -32h-563l6 -889q0 -15 -9 -24t-24 -9h-123q-32 0 -32 33l8 1022q0 32 33 32h704q33 0 33 -32z" />
    <glyph glyph-name="ecy" unicode="&#x454;" horiz-adv-x="1134" 
d="M598 135q186 0 258 148q15 24 39 24h106q18 0 25.5 -10t1.5 -27q-47 -127 -161.5 -212t-282.5 -85q-225 0 -359.5 153.5t-134.5 403.5q0 264 137.5 423t362.5 159q171 0 288.5 -90.5t157.5 -222.5q4 -17 -3.5 -27t-24.5 -10h-107q-24 0 -39 24q-80 166 -270 166
q-137 0 -220 -85.5t-100 -250.5h426q33 0 33 -32v-82q0 -15 -9 -24t-24 -9h-428q15 -164 100 -249t228 -85z" />
    <glyph glyph-name="dzecy" unicode="&#x455;" horiz-adv-x="1062" 
d="M532 1112q88 0 162.5 -23.5t124.5 -63.5t82.5 -86t48.5 -97q6 -17 -1.5 -27t-24.5 -10h-107q-27 0 -41 22q-81 127 -254 127q-95 0 -154 -40.5t-59 -106.5q0 -59 54.5 -93t183.5 -71l84 -25q183 -54 263.5 -129t80.5 -188q0 -150 -113.5 -239t-304.5 -89
q-180 0 -297 81.5t-162 215.5q-6 17 1 27t26 10h121q24 0 39 -24q76 -150 282 -150q104 0 165 37.5t61 114.5q0 65 -57 107t-191 81l-82 25q-162 46 -246 113.5t-84 183.5q0 140 113.5 228.5t285.5 88.5z" />
    <glyph glyph-name="icy" unicode="&#x456;" horiz-adv-x="534" 
d="M356 1495v-139q0 -33 -32 -33h-109q-15 0 -24 9t-9 24v139q0 15 9 24t24 9h109q32 0 32 -33zM354 1055l6 -1022q0 -33 -32 -33h-123q-15 0 -24 9t-9 24l8 1022q0 32 33 32h109q32 0 32 -32z" />
    <glyph glyph-name="yicy" unicode="&#x457;" horiz-adv-x="534" 
d="M209 1497v-139q0 -15 -9 -24t-24 -9h-94q-15 0 -24 9t-9 24v139q0 15 9 24t24 9h94q15 0 24 -9t9 -24zM506 1497v-139q0 -15 -9 -24t-24 -9h-94q-15 0 -24 9t-9 24v139q0 15 9 24t24 9h94q15 0 24 -9t9 -24zM354 1055l6 -1022q0 -33 -32 -33h-123q-15 0 -24 9t-9 24
l8 1022q0 32 33 32h109q32 0 32 -32z" />
    <glyph glyph-name="jecy" unicode="&#x458;" horiz-adv-x="595" 
d="M391 1495v-139q0 -15 -9 -24t-24 -9h-108q-15 0 -24 9t-9 24v139q0 15 9 24t24 9h108q15 0 24 -9t9 -24zM391 1055l8 -1092q0 -208 -97.5 -307.5t-313.5 -106.5q-15 0 -24 9t-9 24v94q0 32 33 35q123 6 172 61t51 181l6 1102q0 32 33 32h108q33 0 33 -32z" />
    <glyph glyph-name="kjecy" unicode="&#x45c;" horiz-adv-x="1163" 
d="M827 1516l-196 -242q-19 -19 -41 -19h-45q-20 0 -26 11t3 28l144 240q11 22 39 22h104q20 0 25.5 -11.5t-7.5 -28.5zM559 561l506 -520q15 -17 10.5 -29t-26.5 -12h-162q-25 0 -41 16l-457 478h-51l2 -461q0 -15 -9 -24t-24 -9h-123q-32 0 -32 33l8 1022q0 32 33 32h108
q33 0 33 -32l2 -434h53l457 450q16 16 41 16h151q22 0 27 -12.5t-10 -27.5z" />
    <glyph glyph-name="ushortcy" unicode="&#x45e;" horiz-adv-x="1075" 
d="M539 1221q-121 0 -194 65.5t-73 194.5q0 30 33 30h66q32 0 32 -30q0 -72 37.5 -108t98.5 -36q62 0 99.5 36t37.5 108q0 30 33 30h67q33 0 33 -30q0 -129 -74 -194.5t-196 -65.5zM887 1087h104q36 0 27 -36l-410 -1174q-64 -182 -168.5 -255t-289.5 -73h-44q-32 0 -32 33
v94q0 33 32 33h3q138 0 210.5 46t112.5 159l14 37l-391 1100q-9 36 27 36h106q28 0 37 -26l297 -860h15l311 860q12 26 39 26z" />
    <glyph glyph-name="Yatcy" unicode="&#x462;" horiz-adv-x="1296" 
d="M338 848h391q214 0 343.5 -116t129.5 -308q0 -190 -130 -307t-343 -117h-549q-15 0 -24 9t-9 24l7 1083h-189q-15 0 -24 9t-9 24v76q0 32 33 32h189l2 199q0 33 32 33h113q15 0 24 -9t9 -24l2 -199h278q33 0 33 -32v-76q0 -15 -9 -24t-24 -9h-278zM340 160h379
q146 0 225.5 70.5t79.5 193.5q0 124 -85.5 193t-244.5 69h-356z" />
    <glyph glyph-name="yatcy" unicode="&#x463;" horiz-adv-x="1263" 
d="M442 688h336q177 0 285 -97t108 -245q0 -147 -111 -246.5t-282 -99.5h-489q-15 0 -24 9t-9 24l4 909h-170q-15 0 -24 9t-9 24v80q0 32 33 32h170l2 408q0 15 9 24t24 9h111q32 0 32 -33l2 -408h299q33 0 33 -32v-80q0 -15 -9 -24t-24 -9h-299zM444 160h324q105 0 165 53
t60 133q0 78 -66.5 130t-183.5 52h-301z" />
    <glyph glyph-name="Gheupturncy" unicode="&#x490;" horiz-adv-x="1120" 
d="M1071 1765l19 -407q1 -15 -7.5 -24t-23.5 -9h-725l8 -1292q0 -15 -9 -24t-24 -9h-127q-32 0 -32 33l6 1423q0 33 32 33h727l7 276q0 33 32 33h82q32 0 35 -33z" />
    <glyph glyph-name="gheupturncy" unicode="&#x491;" horiz-adv-x="999" 
d="M920 1333l20 -379q1 -15 -7.5 -23.5t-23.5 -8.5h-575l6 -889q0 -15 -9 -24t-24 -9h-123q-32 0 -32 33l8 1022q0 32 33 32h579l6 246q0 15 9 24t24 9h74q32 0 35 -33z" />
    <glyph glyph-name="Zedescendercy" unicode="&#x498;" horiz-adv-x="1271" 
d="M1178 420q0 -180 -125.5 -302.5t-362.5 -135.5l-33 -107q71 -13 115.5 -57.5t44.5 -116.5q0 -80 -55 -132t-154 -52q-72 0 -131 30q-28 13 -18 43l10 33q9 31 43 19q58 -23 96 -23q39 0 66.5 22.5t27.5 53.5q0 40 -33.5 65.5t-103.5 26.5h-6q-39 0 -29 37l48 158
q-203 13 -328.5 116.5t-151.5 249.5q-6 35 31 35h117q31 0 37 -29q26 -104 118 -159.5t240 -55.5q172 0 267.5 78t95.5 213q0 136 -96.5 207.5t-291.5 71.5h-147q-33 0 -33 32v86q0 15 9 24t24 9h147q172 0 258.5 65t86.5 177q0 113 -85 183.5t-237 70.5q-262 0 -338 -215
q-9 -27 -37 -27h-104q-17 0 -25 10t-4 27q21 74 61 137t102 115.5t153 82.5t202 30q114 0 207 -32.5t152 -88t90.5 -127t31.5 -150.5q0 -110 -58 -195.5t-173 -129.5q138 -45 208.5 -141.5t70.5 -231.5z" />
    <glyph glyph-name="zedescendercy" unicode="&#x499;" horiz-adv-x="1079" 
d="M989 297q0 -129 -104.5 -219t-292.5 -103l-31 -100q71 -13 115.5 -57.5t44.5 -116.5q0 -80 -55 -132t-154 -52q-72 0 -131 30q-29 13 -19 43l11 33q9 31 43 19q58 -23 96 -23q39 0 66.5 22.5t27.5 53.5q0 40 -33.5 65.5t-103.5 26.5h-6q-39 0 -29 37l45 151
q-157 11 -257.5 85.5t-125.5 177.5q-9 34 29 34h113q27 0 36 -26q54 -123 265 -123q131 0 201.5 48t70.5 132q0 186 -291 186h-106q-15 0 -24 9t-9 24v78q0 15 9 24t24 9h106q125 0 188.5 47t63.5 127q0 74 -64 117t-178 43q-177 0 -241 -121q-13 -25 -37 -25h-102
q-39 0 -29 37q41 111 147.5 182.5t280.5 71.5q173 0 283 -85.5t110 -205.5q0 -85 -48.5 -151.5t-143.5 -100.5q120 -31 179.5 -101.5t59.5 -170.5z" />
    <glyph glyph-name="shhacy" unicode="&#x4bb;" horiz-adv-x="1183" 
d="M338 926l14 -2q130 180 336 180q156 0 247.5 -101.5t92.5 -285.5l4 -684q0 -15 -9 -24t-24 -9h-122q-15 0 -24 9t-9 24l4 639q0 128 -57 194t-162 66q-117 0 -195.5 -83t-95.5 -239l2 -577q0 -15 -9 -24t-24 -9h-123q-32 0 -32 33l8 1462q0 15 9 24t24 9h108q15 0 24 -9
t9 -24z" />
    <glyph glyph-name="Palochkacy" unicode="&#x4c0;" horiz-adv-x="735" 
d="M457 1456l8 -1423q0 -15 -9 -24t-24 -9h-127q-15 0 -24 9t-9 24l7 1423q0 33 32 33h113q15 0 24 -9t9 -24z" />
    <glyph glyph-name="adieresiscy" unicode="&#x4d3;" horiz-adv-x="1148" 
d="M510 1497v-139q0 -15 -9 -24t-24 -9h-94q-15 0 -24 9t-9 24v139q0 15 9 24t24 9h94q15 0 24 -9t9 -24zM807 1497v-139q0 -15 -9 -24t-24 -9h-94q-15 0 -24 9t-9 24v139q0 15 9 24t24 9h94q15 0 24 -9t9 -24zM580 1112q192 0 300.5 -99t108.5 -272l6 -708q0 -33 -32 -33
h-117q-15 0 -24 9t-9 24l2 139h-14q-57 -88 -155 -139t-222 -51q-150 0 -241 78.5t-91 222.5q0 166 134.5 250.5t437.5 113.5q79 8 115 35.5t36 85.5q0 85 -65.5 137.5t-182.5 52.5q-96 0 -159.5 -40t-88.5 -113q-9 -27 -36 -27h-107q-17 0 -25.5 8.5t-5.5 22.5
q36 140 148.5 221.5t286.5 81.5zM813 543l-8 4q-64 -29 -158 -37q-195 -22 -287 -72t-92 -143q0 -76 51.5 -117t143.5 -41q143 0 242.5 82.5t109.5 179.5z" />
    <glyph glyph-name="Aiecy" unicode="&#x4d4;" horiz-adv-x="1931" 
d="M1161 164h643q15 0 24 -9t9 -24v-98q0 -15 -9 -24t-24 -9h-790q-15 0 -24 9t-9 24v428h-498l-250 -438q-11 -23 -38 -23h-123q-20 0 -26 11t3 28l817 1429q12 23 39 23h897q15 0 24 -9t9 -24v-98q0 -15 -9 -24t-24 -9h-641v-465h539q15 0 24 -9t9 -24v-100q0 -15 -9 -24
t-24 -9h-539v-532zM981 625v714l-406 -714h406z" />
    <glyph glyph-name="aiecy" unicode="&#x4d5;" horiz-adv-x="1878" 
d="M1313 1110q211 0 332.5 -146t119.5 -372q0 -29 -2 -43q0 -31 -32 -31h-736q1 -177 90.5 -281t231.5 -104q88 0 146 35t104 111q11 22 39 22h104q19 0 26 -11t1 -28q-62 -140 -173 -214.5t-261 -74.5q-137 0 -246.5 69.5t-171.5 193.5h-11q-57 -116 -177.5 -184
t-272.5 -68q-151 0 -242 77.5t-92 221.5q0 95 42.5 163t130 111.5t208 67.5t289.5 34l53 5v104q0 86 -64.5 138t-181.5 52q-95 0 -159 -40t-91 -113q-9 -27 -36 -27h-105q-17 0 -25 10t-4 27q36 137 148 217t283 80q130 0 224 -46.5t142 -131.5q67 84 161.5 130t207.5 46z
M1006 659h575q0 124 -78 208.5t-205 84.5q-118 0 -193.5 -81.5t-98.5 -211.5zM815 528l-49 -4q-261 -15 -379.5 -68.5t-118.5 -160.5q0 -75 51 -115.5t144 -40.5q148 0 249 104t101 242z" />
    <glyph glyph-name="Zhedieresiscy" unicode="&#x4dc;" horiz-adv-x="2125" 
d="M1004 1901v-140q0 -32 -33 -32h-94q-33 0 -33 32v140q0 32 33 32h94q33 0 33 -32zM1300 1901v-140q0 -32 -32 -32h-94q-33 0 -33 32v140q0 32 33 32h94q32 0 32 -32zM1362 776l614 -735q12 -17 6.5 -29t-26.5 -12h-156q-23 0 -41 18l-553 662h-51l4 -647q0 -15 -9 -24
t-24 -9h-127q-32 0 -32 33l2 647h-49l-553 -662q-18 -18 -41 -18h-156q-21 0 -26.5 12t6.5 29l614 735l-600 672q-15 17 -10.5 29t26.5 12h144q22 0 41 -19l555 -624h49l2 610q0 15 9 24t24 9h114q15 0 24 -9t9 -24l4 -610h51l555 624q19 19 41 19h144q22 0 26.5 -12
t-10.5 -29z" />
    <glyph glyph-name="zhedieresiscy" unicode="&#x4dd;" horiz-adv-x="1701" 
d="M791 1497v-139q0 -15 -9 -24t-24 -9h-94q-15 0 -24 9t-9 24v139q0 15 9 24t24 9h94q15 0 24 -9t9 -24zM1087 1497v-139q0 -33 -32 -33h-94q-15 0 -24 9t-9 24v139q0 15 9 24t24 9h94q32 0 32 -33zM1147 561l461 -520q14 -17 8.5 -29t-27.5 -12h-164q-23 0 -41 18
l-397 476h-47l2 -461q0 -15 -9 -24t-24 -9h-118q-15 0 -24 9t-9 24l2 461h-45l-400 -476q-18 -18 -41 -18h-163q-22 0 -27.5 12t8.5 29l463 520l-451 486q-14 17 -8.5 28.5t27.5 11.5h153q23 0 41 -18l398 -448h47l2 434q0 32 33 32h106q33 0 33 -32l2 -434h49l397 448
q18 18 41 18h154q22 0 27 -11.5t-9 -28.5z" />
    <glyph glyph-name="Zedieresiscy" unicode="&#x4de;" horiz-adv-x="1271" 
d="M578 1898v-139q0 -15 -9 -24t-24 -9h-94q-15 0 -24 9t-9 24v139q0 15 9 24t24 9h94q15 0 24 -9t9 -24zM874 1898v-139q0 -33 -32 -33h-94q-15 0 -24 9t-9 24v139q0 15 9 24t24 9h94q32 0 32 -33zM899 793q138 -45 208.5 -141.5t70.5 -231.5q0 -92 -34 -170.5
t-99.5 -139.5t-170.5 -95.5t-239 -34.5q-117 0 -214 30t-162.5 82t-106.5 117t-54 139q-6 35 31 35h117q31 0 37 -29q26 -104 118 -159.5t240 -55.5q172 0 267.5 78t95.5 213q0 136 -96.5 207.5t-291.5 71.5h-147q-33 0 -33 32v86q0 15 9 24t24 9h147q172 0 258.5 65
t86.5 177q0 113 -85 183.5t-237 70.5q-262 0 -338 -215q-9 -27 -37 -27h-104q-17 0 -25 10t-4 27q21 74 61 137t102 115.5t153 82.5t202 30q114 0 207 -32.5t152 -88t90.5 -127t31.5 -150.5q0 -110 -58 -195.5t-173 -129.5z" />
    <glyph glyph-name="zedieresiscy" unicode="&#x4df;" horiz-adv-x="1079" 
d="M481 1497v-139q0 -33 -32 -33h-95q-32 0 -32 33v139q0 33 32 33h95q32 0 32 -33zM778 1497v-139q0 -15 -9 -24t-24 -9h-94q-15 0 -24 9t-9 24v139q0 15 9 24t24 9h94q15 0 24 -9t9 -24zM750 569q120 -31 179.5 -101.5t59.5 -170.5q0 -140 -120.5 -232t-333.5 -92
q-181 0 -296.5 76.5t-142.5 188.5q-9 34 29 34h113q27 0 36 -26q54 -123 265 -123q131 0 201.5 48t70.5 132q0 186 -291 186h-106q-15 0 -24 9t-9 24v78q0 15 9 24t24 9h106q125 0 188.5 47t63.5 127q0 74 -64 117t-178 43q-177 0 -241 -121q-13 -25 -37 -25h-102
q-39 0 -29 37q41 111 147.5 182.5t280.5 71.5q173 0 283 -85.5t110 -205.5q0 -85 -48.5 -151.5t-143.5 -100.5z" />
    <glyph glyph-name="Imacroncy" unicode="&#x4e2;" horiz-adv-x="1476" 
d="M981 1851v-69q0 -15 -9 -24t-24 -9h-401q-15 0 -24 9t-9 24v69q0 15 9 24t24 9h401q15 0 24 -9t9 -24zM1124 1489h172q15 0 24 -9t9 -24l-6 -1423q0 -15 -9 -24t-24 -9h-110q-15 0 -24 9t-9 24l-6 1214l-735 -1224q-12 -23 -39 -23h-179q-32 0 -32 33l-9 1423q0 15 9 24
t24 9h125q15 0 24 -9t9 -24l-6 -1251l753 1261q11 23 39 23z" />
    <glyph glyph-name="imacroncy" unicode="&#x4e3;" horiz-adv-x="1247" 
d="M864 1458v-69q0 -15 -9 -24t-24 -9h-401q-15 0 -24 9t-9 24v69q0 15 9 24t24 9h401q15 0 24 -9t9 -24zM1063 0h-115q-15 0 -24 9t-9 24l5 835l-533 -845q-14 -23 -41 -23h-162q-32 0 -32 33l6 1022q0 32 32 32h103q33 0 33 -32l4 -832l528 842q14 22 41 22h158
q33 0 33 -32l6 -1022q0 -15 -9 -24t-24 -9z" />
    <glyph glyph-name="Idieresiscy" unicode="&#x4e4;" horiz-adv-x="1476" 
d="M688 1898v-139q0 -15 -9 -24t-24 -9h-94q-15 0 -24 9t-9 24v139q0 15 9 24t24 9h94q15 0 24 -9t9 -24zM985 1898v-139q0 -15 -9 -24t-24 -9h-94q-15 0 -24 9t-9 24v139q0 15 9 24t24 9h94q15 0 24 -9t9 -24zM1124 1489h172q15 0 24 -9t9 -24l-6 -1423q0 -15 -9 -24
t-24 -9h-110q-15 0 -24 9t-9 24l-6 1214l-735 -1224q-12 -23 -39 -23h-179q-32 0 -32 33l-9 1423q0 15 9 24t24 9h125q15 0 24 -9t9 -24l-6 -1251l753 1261q11 23 39 23z" />
    <glyph glyph-name="idieresiscy" unicode="&#x4e5;" horiz-adv-x="1247" 
d="M571 1505v-139q0 -33 -32 -33h-95q-32 0 -32 33v139q0 33 32 33h95q32 0 32 -33zM868 1505v-139q0 -33 -32 -33h-95q-32 0 -32 33v139q0 33 32 33h95q32 0 32 -33zM1063 0h-115q-15 0 -24 9t-9 24l5 835l-533 -845q-14 -23 -41 -23h-162q-32 0 -32 33l6 1022q0 32 32 32
h103q33 0 33 -32l4 -832l528 842q14 22 41 22h158q33 0 33 -32l6 -1022q0 -15 -9 -24t-24 -9z" />
    <glyph glyph-name="Odieresiscy" unicode="&#x4e6;" horiz-adv-x="1585" 
d="M733 1909v-140q0 -32 -33 -32h-94q-33 0 -33 32v140q0 15 9 24t24 9h94q15 0 24 -9t9 -24zM1030 1909v-140q0 -32 -33 -32h-94q-33 0 -33 32v140q0 15 9 24t24 9h94q15 0 24 -9t9 -24zM805 1513q197 0 353 -92.5t244.5 -263t88.5 -389.5q0 -226 -92 -408t-254.5 -284.5
t-362.5 -102.5q-196 0 -353 97.5t-246 274t-89 398.5q0 224 92.5 400t254.5 273t364 97zM793 1354q-111 0 -206 -40.5t-164.5 -116t-109 -189t-39.5 -252.5q0 -281 146 -451t375 -170q110 0 205 43.5t164.5 122t109 195t39.5 256.5q0 277 -145.5 439.5t-374.5 162.5z" />
    <glyph glyph-name="odieresiscy" unicode="&#x4e7;" 
d="M545 1497v-139q0 -15 -9 -24t-24 -9h-94q-15 0 -24 9t-9 24v139q0 15 9 24t24 9h94q15 0 24 -9t9 -24zM842 1497v-139q0 -15 -9 -24t-24 -9h-94q-15 0 -24 9t-9 24v139q0 15 9 24t24 9h94q15 0 24 -9t9 -24zM612 1112q220 0 362 -154t142 -401q0 -167 -67 -300.5
t-186 -208.5t-267 -75q-219 0 -362.5 159.5t-143.5 406.5q0 253 147.5 413t374.5 160zM594 954q-144 0 -235 -108.5t-91 -290.5q0 -187 98.5 -303.5t245.5 -116.5q144 0 235 111t91 291q0 190 -97.5 303.5t-246.5 113.5z" />
    <glyph glyph-name="Umacroncy" unicode="&#x4ee;" horiz-adv-x="1236" 
d="M846 1851v-69q0 -15 -9 -24t-24 -9h-401q-15 0 -24 9t-9 24v69q0 15 9 24t24 9h401q15 0 24 -9t9 -24zM1051 1489h116q20 0 27.5 -11t-0.5 -28l-494 -1104q-82 -186 -207.5 -266t-310.5 -80h-69q-15 0 -24 9t-9 24v94q0 15 9 24t24 9h37q138 0 230 54.5t150 182.5l2 4
l-485 1049q-8 17 -1.5 28t26.5 11h116q28 0 37 -25l391 -852h11l387 852q9 25 37 25z" />
    <glyph glyph-name="umacroncy" unicode="&#x4ef;" horiz-adv-x="1075" 
d="M776 1450v-70q0 -32 -33 -32h-401q-33 0 -33 32v70q0 15 9 24t24 9h401q15 0 24 -9t9 -24zM887 1087h104q36 0 27 -36l-410 -1174q-64 -182 -168.5 -255t-289.5 -73h-44q-32 0 -32 33v94q0 33 32 33h3q138 0 210.5 46t112.5 159l14 37l-391 1100q-9 36 27 36h106
q28 0 37 -26l297 -860h15l311 860q12 26 39 26z" />
    <glyph glyph-name="Udieresiscy" unicode="&#x4f0;" horiz-adv-x="1236" 
d="M551 1898v-139q0 -15 -9 -24t-24 -9h-94q-15 0 -24 9t-9 24v139q0 15 9 24t24 9h94q15 0 24 -9t9 -24zM848 1898v-139q0 -15 -9 -24t-24 -9h-94q-15 0 -24 9t-9 24v139q0 15 9 24t24 9h94q15 0 24 -9t9 -24zM1051 1489h116q20 0 27.5 -11t-0.5 -28l-494 -1104
q-82 -186 -207.5 -266t-310.5 -80h-69q-15 0 -24 9t-9 24v94q0 15 9 24t24 9h37q138 0 230 54.5t150 182.5l2 4l-485 1049q-8 17 -1.5 28t26.5 11h116q28 0 37 -25l391 -852h11l387 852q9 25 37 25z" />
    <glyph glyph-name="udieresiscy" unicode="&#x4f1;" horiz-adv-x="1075" 
d="M481 1497v-139q0 -33 -32 -33h-95q-32 0 -32 33v139q0 33 32 33h95q32 0 32 -33zM778 1497v-139q0 -15 -9 -24t-24 -9h-94q-15 0 -24 9t-9 24v139q0 15 9 24t24 9h94q15 0 24 -9t9 -24zM887 1087h104q36 0 27 -36l-410 -1174q-64 -182 -168.5 -255t-289.5 -73h-44
q-32 0 -32 33v94q0 33 32 33h3q138 0 210.5 46t112.5 159l14 37l-391 1100q-9 36 27 36h106q28 0 37 -26l297 -860h15l311 860q12 26 39 26z" />
    <glyph glyph-name="Chedieresiscy" unicode="&#x4f4;" horiz-adv-x="1376" 
d="M588 1907v-140q0 -32 -33 -32h-94q-33 0 -33 32v140q0 32 33 32h94q33 0 33 -32zM885 1907v-140q0 -32 -33 -32h-94q-33 0 -33 32v140q0 32 33 32h94q33 0 33 -32zM1196 0h-127q-15 0 -24 9t-9 24l2 614q-192 -166 -458 -166q-222 0 -354.5 134t-131.5 376l4 465
q0 15 9 24t24 9h113q32 0 32 -33v-452q0 -172 87.5 -261.5t252.5 -89.5q239 3 424 185l2 618q0 15 9 24t24 9h113q15 0 24 -9t9 -24l8 -1423q0 -15 -9 -24t-24 -9z" />
    <glyph glyph-name="chedieresiscy" unicode="&#x4f5;" horiz-adv-x="1124" 
d="M469 1497v-139q0 -15 -9 -24t-24 -9h-94q-15 0 -24 9t-9 24v139q0 15 9 24t24 9h94q15 0 24 -9t9 -24zM766 1497v-139q0 -15 -9 -24t-24 -9h-94q-15 0 -24 9t-9 24v139q0 15 9 24t24 9h94q15 0 24 -9t9 -24zM938 0h-121q-15 0 -24 9t-9 24l2 401q-136 -117 -327 -117
q-174 0 -271.5 102.5t-97.5 289.5l4 346q0 32 33 32h111q32 0 32 -32l-2 -301q-3 -265 234 -265q169 0 286 127l3 439q0 32 32 32h109q33 0 33 -32l6 -1022q0 -15 -9 -24t-24 -9z" />
    <glyph glyph-name="Bdotbelow" unicode="&#x1e04;" horiz-adv-x="1374" 
d="M1057 788q108 -52 165.5 -143t57.5 -209q0 -188 -129.5 -312t-341.5 -124h-629q-15 0 -24 9t-9 24l9 1423q0 33 32 33h560q204 0 326 -109.5t122 -281.5q0 -93 -36 -173t-103 -137zM334 1329l2 -481h420q123 0 191.5 63t68.5 174t-77.5 177.5t-211.5 66.5h-393zM340 160
h457q144 0 223.5 70t79.5 190q0 122 -86.5 194t-241.5 72h-434zM584 -348v147q0 33 32 33h117q15 0 24 -9t9 -24v-147q0 -15 -9 -24t-24 -9h-117q-32 0 -32 33z" />
    <glyph glyph-name="bdotbelow" unicode="&#x1e05;" horiz-adv-x="1245" 
d="M332 979h12q112 133 305 133q226 0 366 -160t140 -420q0 -246 -127 -402.5t-330 -156.5q-106 0 -199 46.5t-151 134.5h-12v-121q0 -15 -9 -24t-24 -9h-119q-32 0 -32 33l8 1462q0 15 9 24t24 9h104q15 0 24 -9t9 -24zM651 954q-130 0 -220 -91.5t-105 -252.5v-137
q13 -165 104 -252.5t223 -87.5q152 0 237 108.5t85 293.5q0 197 -89 308t-235 111zM741 -201v-147q0 -33 -32 -33h-117q-15 0 -24 9t-9 24v147q0 15 9 24t24 9h117q32 0 32 -33z" />
    <glyph glyph-name="Ddotbelow" unicode="&#x1e0c;" horiz-adv-x="1482" 
d="M188 1489h494q338 0 522.5 -195.5t184.5 -527.5q0 -166 -47 -305.5t-135.5 -242.5t-224 -160.5t-304.5 -57.5h-498q-15 0 -24 9t-9 24l9 1423q0 33 32 33zM340 162h326q253 0 397.5 156.5t144.5 426.5q0 277 -143 430.5t-397 153.5h-334zM600 -348v147q0 15 9 24t24 9
h117q32 0 32 -33v-147q0 -33 -32 -33h-117q-15 0 -24 9t-9 24z" />
    <glyph glyph-name="ddotbelow" unicode="&#x1e0d;" horiz-adv-x="1243" 
d="M1085 1495l7 -1462q0 -15 -9 -24t-24 -9h-123q-15 0 -24 9t-9 24v121h-12q-54 -88 -146 -134.5t-198 -46.5q-203 0 -330 156.5t-127 402.5q0 260 140.5 420t365.5 160q185 0 303 -133h10v516q0 15 9 24t24 9h111q32 0 32 -33zM592 954q-152 0 -238 -109.5t-86 -297.5
q0 -192 89.5 -302t236.5 -110q130 0 221 91t103 253v137q-14 164 -104 251t-222 87zM692 -201v-147q0 -15 -9 -24t-24 -9h-116q-15 0 -24 9t-9 24v147q0 15 9 24t24 9h116q15 0 24 -9t9 -24z" />
    <glyph glyph-name="Ldotbelow" unicode="&#x1e36;" horiz-adv-x="1181" 
d="M342 164h754q32 0 32 -33v-98q0 -33 -32 -33h-916q-15 0 -24 9t-9 24l9 1423q0 33 32 33h113q15 0 24 -9t9 -24zM510 -348v147q0 15 9 24t24 9h116q15 0 24 -9t9 -24v-147q0 -15 -9 -24t-24 -9h-116q-15 0 -24 9t-9 24z" />
    <glyph glyph-name="ldotbelow" unicode="&#x1e37;" horiz-adv-x="583" 
d="M379 1495l8 -1462q0 -15 -9 -24t-24 -9h-123q-32 0 -32 33l6 1462q0 15 9 24t24 9h108q15 0 24 -9t9 -24zM383 -201v-147q0 -15 -9 -24t-24 -9h-117q-32 0 -32 33v147q0 33 32 33h117q15 0 24 -9t9 -24z" />
    <glyph glyph-name="Macute" unicode="&#x1e3e;" horiz-adv-x="1785" 
d="M1139 1917l-197 -242q-18 -18 -41 -18h-45q-20 0 -25.5 11t3.5 28l143 239q11 23 39 23h104q21 0 26.5 -12t-7.5 -29zM1604 0h-119q-15 0 -24 9t-9 24l-20 1253l-439 -1259q-12 -27 -39 -27h-118q-28 0 -37 27l-447 1286l-18 -1280q0 -15 -9 -24t-24 -9h-121q-15 0 -24 9
t-9 24l46 1423q0 33 32 33h197q27 0 39 -27l434 -1237l434 1237q12 27 39 27h193q32 0 32 -33l43 -1423q0 -33 -32 -33z" />
    <glyph glyph-name="macute" unicode="&#x1e3f;" horiz-adv-x="1769" 
d="M1161 1516l-196 -242q-19 -19 -41 -19h-45q-20 0 -26 11t3 28l143 240q11 22 39 22h105q20 0 25.5 -11.5t-7.5 -28.5zM1300 1112q154 0 241 -102t87 -293l4 -684q0 -15 -9 -24t-24 -9h-122q-15 0 -24 9t-9 24l4 639q1 135 -50.5 201.5t-148.5 66.5q-110 0 -185 -84.5
t-89 -247.5l2 -575q0 -15 -9 -24t-24 -9h-121q-32 0 -32 33l2 639q1 135 -50.5 201.5t-148.5 66.5q-110 0 -187.5 -81.5t-93.5 -248.5l4 -577q0 -33 -32 -33h-123q-15 0 -24 9t-9 24l6 1022q0 32 33 32h111q32 0 32 -32v-129h11q144 186 331 186q217 0 285 -205h14
q144 205 348 205z" />
    <glyph glyph-name="Ndotaccent" unicode="&#x1e44;" horiz-adv-x="1476" 
d="M827 1907v-140q0 -32 -32 -32h-109q-33 0 -33 32v140q0 32 33 32h109q32 0 32 -32zM1323 1456l6 -1423q0 -15 -9 -24t-24 -9h-172q-28 0 -39 23l-753 1261l6 -1251q0 -15 -9 -24t-24 -9h-125q-15 0 -24 9t-9 24l9 1423q0 33 32 33h179q27 0 39 -23l735 -1224l6 1214
q0 15 9 24t24 9h110q15 0 24 -9t9 -24z" />
    <glyph glyph-name="ndotaccent" unicode="&#x1e45;" horiz-adv-x="1189" 
d="M680 1495v-139q0 -15 -9 -24t-24 -9h-108q-15 0 -24 9t-9 24v139q0 15 9 24t24 9h108q15 0 24 -9t9 -24zM690 1112q159 0 253.5 -103.5t94.5 -291.5v-684q0 -33 -32 -33h-123q-15 0 -24 9t-9 24v639q0 132 -58 200t-163 68q-118 0 -196 -84.5t-95 -245.5l2 -577
q0 -15 -9 -24t-24 -9h-123q-32 0 -32 33l8 1022q0 32 33 32h108q33 0 33 -32l2 -129l14 -2q132 188 340 188z" />
    <glyph glyph-name="Ndotbelow" unicode="&#x1e46;" horiz-adv-x="1476" 
d="M1323 1456l6 -1423q0 -15 -9 -24t-24 -9h-172q-28 0 -39 23l-753 1261l6 -1251q0 -15 -9 -24t-24 -9h-125q-15 0 -24 9t-9 24l9 1423q0 33 32 33h179q27 0 39 -23l735 -1224l6 1214q0 15 9 24t24 9h110q15 0 24 -9t9 -24zM647 -348v147q0 15 9 24t24 9h117q32 0 32 -33
v-147q0 -33 -32 -33h-117q-15 0 -24 9t-9 24z" />
    <glyph glyph-name="ndotbelow" unicode="&#x1e47;" horiz-adv-x="1189" 
d="M690 1112q159 0 253.5 -103.5t94.5 -291.5v-684q0 -33 -32 -33h-123q-15 0 -24 9t-9 24v639q0 132 -58 200t-163 68q-118 0 -196 -84.5t-95 -245.5l2 -577q0 -15 -9 -24t-24 -9h-123q-32 0 -32 33l8 1022q0 32 33 32h108q33 0 33 -32l2 -129l14 -2q132 188 340 188z
M682 -201v-147q0 -15 -9 -24t-24 -9h-117q-32 0 -32 33v147q0 33 32 33h117q15 0 24 -9t9 -24z" />
    <glyph glyph-name="Sdotbelow" unicode="&#x1e62;" horiz-adv-x="1341" 
d="M674 1513q106 0 197.5 -29t156.5 -79t110.5 -111.5t71.5 -132.5q13 -37 -26 -37h-111q-27 0 -39 23q-52 91 -146.5 148t-228.5 57q-151 0 -233 -59t-82 -156t81.5 -155t279.5 -118l79 -24q244 -75 353.5 -186t109.5 -267q0 -193 -144.5 -303.5t-389.5 -110.5
q-111 0 -206 24.5t-162 64.5t-118.5 93.5t-81 108t-43.5 111.5q-5 15 3.5 25t25.5 10h117q24 0 37 -25q49 -111 155 -179.5t279 -68.5q165 0 253.5 58t88.5 167q0 102 -87 174.5t-284 137.5l-84 26q-223 72 -332.5 165.5t-113.5 244.5q-4 184 142.5 293.5t371.5 109.5z
M762 -201v-147q0 -15 -9 -24t-24 -9h-117q-32 0 -32 33v147q0 33 32 33h117q15 0 24 -9t9 -24z" />
    <glyph glyph-name="sdotbelow" unicode="&#x1e63;" horiz-adv-x="1062" 
d="M532 1112q88 0 162.5 -23.5t124.5 -63.5t82.5 -86t48.5 -97q6 -17 -1.5 -27t-24.5 -10h-107q-27 0 -41 22q-81 127 -254 127q-95 0 -154 -40.5t-59 -106.5q0 -59 54.5 -93t183.5 -71l84 -25q183 -54 263.5 -129t80.5 -188q0 -150 -113.5 -239t-304.5 -89
q-180 0 -297 81.5t-162 215.5q-6 17 1 27t26 10h121q24 0 39 -24q76 -150 282 -150q104 0 165 37.5t61 114.5q0 65 -57 107t-191 81l-82 25q-162 46 -246 113.5t-84 183.5q0 140 113.5 228.5t285.5 88.5zM623 -201v-147q0 -15 -9 -24t-24 -9h-117q-15 0 -24 9t-9 24v147
q0 15 9 24t24 9h117q15 0 24 -9t9 -24z" />
    <glyph glyph-name="Tdotbelow" unicode="&#x1e6c;" horiz-adv-x="1198" 
d="M1169 1456v-98q0 -33 -32 -33h-447l6 -1292q0 -33 -32 -33h-127q-15 0 -24 9t-9 24l6 1292h-449q-32 0 -32 33v98q0 33 32 33h1076q32 0 32 -33zM508 -348v147q0 15 9 24t24 9h116q15 0 24 -9t9 -24v-147q0 -15 -9 -24t-24 -9h-116q-15 0 -24 9t-9 24z" />
    <glyph glyph-name="tdotbelow" unicode="&#x1e6d;" horiz-adv-x="716" 
d="M670 1055v-86q0 -15 -9 -24t-24 -9h-199l4 -903q0 -33 -32 -33h-123q-15 0 -24 9t-9 24l4 903h-164q-15 0 -24 9t-9 24v86q0 32 33 32h164l2 392q0 32 33 32h108q33 0 33 -32l2 -392h201q33 0 33 -32zM246 -348v147q0 15 9 24t24 9h116q15 0 24 -9t9 -24v-147
q0 -15 -9 -24t-24 -9h-116q-15 0 -24 9t-9 24z" />
    <glyph glyph-name="Wgrave" unicode="&#x1e80;" horiz-adv-x="2023" 
d="M1067 1667h-45q-22 0 -41 19l-197 241q-13 17 -7.5 29t26.5 12h104q28 0 39 -22l144 -240q9 -17 2.5 -28t-25.5 -11zM1835 1489h117q38 0 28 -37l-403 -1423q-9 -29 -37 -29h-151q-28 0 -37 29l-332 1198h-16l-330 -1198q-9 -29 -37 -29h-152q-27 0 -36 29l-406 1423
q-10 37 29 37h116q28 0 37 -29l332 -1161h16l326 1161q9 29 37 29h151q28 0 37 -29l326 -1161h18l330 1161q9 29 37 29z" />
    <glyph glyph-name="wgrave" unicode="&#x1e81;" horiz-adv-x="1583" 
d="M844 1255h-45q-22 0 -41 19l-197 242q-13 17 -7.5 28.5t26.5 11.5h104q28 0 39 -22l143 -240q9 -17 3 -28t-25 -11zM1397 1087h104q38 0 29 -36l-285 -1022q-9 -29 -37 -29h-172q-28 0 -37 27l-206 721h-17l-192 -719q-9 -29 -37 -29h-174q-28 0 -37 29l-283 1022
q-9 36 29 36h106q29 0 37 -28l230 -862h22l232 862q8 28 36 28h95q29 0 37 -28l233 -862h20l230 862q8 28 37 28z" />
    <glyph glyph-name="Wacute" unicode="&#x1e82;" horiz-adv-x="2023" 
d="M1260 1927l-197 -241q-19 -19 -41 -19h-45q-20 0 -26 11t3 28l144 240q11 22 39 22h104q21 0 26.5 -12t-7.5 -29zM1835 1489h117q38 0 28 -37l-403 -1423q-9 -29 -37 -29h-151q-28 0 -37 29l-332 1198h-16l-330 -1198q-9 -29 -37 -29h-152q-27 0 -36 29l-406 1423
q-10 37 29 37h116q28 0 37 -29l332 -1161h16l326 1161q9 29 37 29h151q28 0 37 -29l326 -1161h18l330 1161q9 29 37 29z" />
    <glyph glyph-name="wacute" unicode="&#x1e83;" horiz-adv-x="1583" 
d="M1036 1516l-196 -242q-19 -19 -41 -19h-45q-20 0 -26 11t3 28l143 240q11 22 39 22h105q20 0 25.5 -11.5t-7.5 -28.5zM1397 1087h104q38 0 29 -36l-285 -1022q-9 -29 -37 -29h-172q-28 0 -37 27l-206 721h-17l-192 -719q-9 -29 -37 -29h-174q-28 0 -37 29l-283 1022
q-9 36 29 36h106q29 0 37 -28l230 -862h22l232 862q8 28 36 28h95q29 0 37 -28l233 -862h20l230 862q8 28 37 28z" />
    <glyph glyph-name="Wdieresis" unicode="&#x1e84;" horiz-adv-x="2023" 
d="M954 1909v-140q0 -32 -32 -32h-95q-32 0 -32 32v140q0 33 32 33h95q32 0 32 -33zM1251 1909v-140q0 -32 -32 -32h-95q-32 0 -32 32v140q0 33 32 33h95q32 0 32 -33zM1835 1489h117q38 0 28 -37l-403 -1423q-9 -29 -37 -29h-151q-28 0 -37 29l-332 1198h-16l-330 -1198
q-9 -29 -37 -29h-152q-27 0 -36 29l-406 1423q-10 37 29 37h116q28 0 37 -29l332 -1161h16l326 1161q9 29 37 29h151q28 0 37 -29l326 -1161h18l330 1161q9 29 37 29z" />
    <glyph glyph-name="wdieresis" unicode="&#x1e85;" horiz-adv-x="1583" 
d="M731 1497v-139q0 -15 -9 -24t-24 -9h-94q-15 0 -24 9t-9 24v139q0 15 9 24t24 9h94q15 0 24 -9t9 -24zM1028 1497v-139q0 -15 -9 -24t-24 -9h-94q-15 0 -24 9t-9 24v139q0 15 9 24t24 9h94q15 0 24 -9t9 -24zM1397 1087h104q38 0 29 -36l-285 -1022q-9 -29 -37 -29h-172
q-28 0 -37 27l-206 721h-17l-192 -719q-9 -29 -37 -29h-174q-28 0 -37 29l-283 1022q-9 36 29 36h106q29 0 37 -28l230 -862h22l232 862q8 28 36 28h95q29 0 37 -28l233 -862h20l230 862q8 28 37 28z" />
    <glyph glyph-name="Zdotbelow" unicode="&#x1e92;" horiz-adv-x="1341" 
d="M342 166h842q15 0 24 -9t9 -24v-100q0 -15 -9 -24t-24 -9h-1049q-15 0 -24 9t-9 24v82q0 25 21 51l838 1145v14h-787q-15 0 -24 9t-9 24v98q0 15 9 24t24 9h991q15 0 24 -9t9 -24v-78q0 -30 -18 -53l-838 -1149v-10zM569 -348v147q0 15 9 24t24 9h117q15 0 24 -9t9 -24
v-147q0 -15 -9 -24t-24 -9h-117q-15 0 -24 9t-9 24z" />
    <glyph glyph-name="zdotbelow" unicode="&#x1e93;" horiz-adv-x="1007" 
d="M905 1055v-92v-2q0 -15 -18 -33l-580 -768v-8h576q32 0 32 -33v-86q0 -33 -32 -33h-760q-15 0 -24 9t-9 24v90q0 12 6 18l606 785v10h-557q-32 0 -32 33v86q0 32 32 32h727q33 0 33 -32zM596 -201v-147q0 -15 -9 -24t-24 -9h-117q-32 0 -32 33v147q0 33 32 33h117
q15 0 24 -9t9 -24z" />
    <glyph glyph-name="Adotbelow" unicode="&#x1ea0;" horiz-adv-x="1363" 
d="M1292 0h-118q-27 0 -39 27l-156 434h-592l-156 -434q-12 -27 -38 -27h-119q-19 0 -26 10t-1 27l526 1425q12 27 39 27h142q30 0 39 -27l526 -1425q6 -17 -1 -27t-26 -10zM920 625l-232 643h-10l-232 -643h474zM592 -348v147q0 15 9 24t24 9h116q15 0 24 -9t9 -24v-147
q0 -15 -9 -24t-24 -9h-116q-15 0 -24 9t-9 24z" />
    <glyph glyph-name="adotbelow" unicode="&#x1ea1;" horiz-adv-x="1148" 
d="M580 1112q192 0 300.5 -99t108.5 -272l6 -708q0 -33 -32 -33h-117q-15 0 -24 9t-9 24l2 139h-14q-57 -88 -155 -139t-222 -51q-150 0 -241 78.5t-91 222.5q0 166 134.5 250.5t437.5 113.5q79 8 115 35.5t36 85.5q0 85 -65.5 137.5t-182.5 52.5q-96 0 -159.5 -40
t-88.5 -113q-9 -27 -36 -27h-107q-17 0 -25.5 8.5t-5.5 22.5q36 140 148.5 221.5t286.5 81.5zM813 543l-8 4q-64 -29 -158 -37q-195 -22 -287 -72t-92 -143q0 -76 51.5 -117t143.5 -41q143 0 242.5 82.5t109.5 179.5zM678 -201v-147q0 -15 -9 -24t-24 -9h-117q-32 0 -32 33
v147q0 33 32 33h117q15 0 24 -9t9 -24z" />
    <glyph glyph-name="Edotbelow" unicode="&#x1eb8;" 
d="M342 164h739q15 0 24 -9t9 -24v-98q0 -15 -9 -24t-24 -9h-901q-15 0 -24 9t-9 24l9 1423q0 33 32 33h891q15 0 24 -9t9 -24v-98q0 -15 -9 -24t-24 -9h-745l4 -463h637q15 0 24 -9t9 -24v-100q0 -15 -9 -24t-24 -9h-637zM516 -348v147q0 15 9 24t24 9h117q32 0 32 -33
v-147q0 -33 -32 -33h-117q-15 0 -24 9t-9 24z" />
    <glyph glyph-name="edotbelow" unicode="&#x1eb9;" horiz-adv-x="1163" 
d="M606 1110q153 0 261.5 -75.5t158.5 -200.5t45 -283q-3 -33 -35 -33h-766q1 -179 92.5 -282t245.5 -103q174 0 262 146q11 22 39 22h105q18 0 25 -10.5t1 -28.5q-61 -139 -177 -214t-269 -75q-223 0 -363.5 156.5t-140.5 407.5q0 256 143.5 414.5t372.5 158.5zM592 952
q-130 0 -209 -81t-102 -212h608q-5 126 -84 209.5t-213 83.5zM672 -201v-147q0 -15 -9 -24t-24 -9h-117q-15 0 -24 9t-9 24v147q0 15 9 24t24 9h117q15 0 24 -9t9 -24z" />
    <glyph glyph-name="Etilde" unicode="&#x1ebc;" 
d="M514 1796q-51 0 -59 -70q-3 -32 -35 -32h-45q-15 0 -23.5 8.5t-7.5 23.5q5 84 45.5 136.5t122.5 52.5q36 0 67 -14t52.5 -33.5t40 -39.5t38 -34t38.5 -14q46 0 53 69q3 33 35 33h43q15 0 23 -9t7 -24q-5 -81 -43.5 -134.5t-117.5 -53.5q-33 0 -62 14t-49.5 33.5t-39 39.5
t-40 34t-43.5 14zM342 164h739q15 0 24 -9t9 -24v-98q0 -15 -9 -24t-24 -9h-901q-15 0 -24 9t-9 24l9 1423q0 33 32 33h891q15 0 24 -9t9 -24v-98q0 -15 -9 -24t-24 -9h-745l4 -463h637q15 0 24 -9t9 -24v-100q0 -15 -9 -24t-24 -9h-637z" />
    <glyph glyph-name="etilde" unicode="&#x1ebd;" horiz-adv-x="1163" 
d="M481 1511q36 0 67 -14t52.5 -33.5t40 -39.5t38 -34t38.5 -14q46 0 53 70q3 33 35 33h43q15 0 23.5 -9t7.5 -24q-5 -81 -44 -135t-118 -54q-41 0 -76 21.5t-55.5 46.5t-48 46.5t-54.5 21.5q-51 0 -59 -70q-3 -33 -35 -33h-45q-15 0 -23.5 9t-7.5 24q5 84 45.5 136
t122.5 52zM606 1110q153 0 261.5 -75.5t158.5 -200.5t45 -283q-3 -33 -35 -33h-766q1 -179 92.5 -282t245.5 -103q174 0 262 146q11 22 39 22h105q18 0 25 -10.5t1 -28.5q-61 -139 -177 -214t-269 -75q-223 0 -363.5 156.5t-140.5 407.5q0 256 143.5 414.5t372.5 158.5z
M592 952q-130 0 -209 -81t-102 -212h608q-5 126 -84 209.5t-213 83.5z" />
    <glyph glyph-name="Idotbelow" unicode="&#x1eca;" horiz-adv-x="735" 
d="M457 1456l8 -1423q0 -15 -9 -24t-24 -9h-127q-15 0 -24 9t-9 24l7 1423q0 33 32 33h113q15 0 24 -9t9 -24zM461 -201v-147q0 -15 -9 -24t-24 -9h-117q-32 0 -32 33v147q0 33 32 33h117q15 0 24 -9t9 -24z" />
    <glyph glyph-name="idotbelow" unicode="&#x1ecb;" horiz-adv-x="534" 
d="M356 1495v-139q0 -33 -32 -33h-109q-15 0 -24 9t-9 24v139q0 15 9 24t24 9h109q32 0 32 -33zM354 1055l6 -1022q0 -33 -32 -33h-123q-15 0 -24 9t-9 24l8 1022q0 32 33 32h109q32 0 32 -32zM358 -201v-147q0 -33 -32 -33h-117q-15 0 -24 9t-9 24v147q0 15 9 24t24 9h117
q32 0 32 -33z" />
    <glyph glyph-name="Odotbelow" unicode="&#x1ecc;" horiz-adv-x="1585" 
d="M805 1513q197 0 353 -92.5t244.5 -263t88.5 -389.5q0 -226 -92 -408t-254.5 -284.5t-362.5 -102.5q-196 0 -353 97.5t-246 274t-89 398.5q0 224 92.5 400t254.5 273t364 97zM793 1354q-111 0 -206 -40.5t-164.5 -116t-109 -189t-39.5 -252.5q0 -281 146 -451t375 -170
q110 0 205 43.5t164.5 122t109 195t39.5 256.5q0 277 -145.5 439.5t-374.5 162.5zM874 -201v-147q0 -33 -32 -33h-117q-15 0 -24 9t-9 24v147q0 15 9 24t24 9h117q32 0 32 -33z" />
    <glyph glyph-name="odotbelow" unicode="&#x1ecd;" 
d="M612 1112q220 0 362 -154t142 -401q0 -167 -67 -300.5t-186 -208.5t-267 -75q-219 0 -362.5 159.5t-143.5 406.5q0 253 147.5 413t374.5 160zM594 954q-144 0 -235 -108.5t-91 -290.5q0 -187 98.5 -303.5t245.5 -116.5q144 0 235 111t91 291q0 190 -97.5 303.5
t-246.5 113.5zM387 -201v-147q0 -15 -9 -24t-24 -9h-116q-15 0 -24 9t-9 24v147q0 15 9 24t24 9h116q15 0 24 -9t9 -24z" />
    <glyph glyph-name="Udotbelow" unicode="&#x1ee4;" horiz-adv-x="1511" 
d="M1360 1456l2 -815q1 -318 -167 -493t-441 -175t-440.5 175t-166.5 493l5 815q0 33 32 33h115q15 0 24 -9t9 -24l2 -794q1 -262 113.5 -394.5t310.5 -132.5q199 0 308.5 132.5t109.5 394.5l4 794q0 33 32 33h115q15 0 24 -9t9 -24zM844 -201v-147q0 -15 -9 -24t-24 -9
h-117q-32 0 -32 33v147q0 33 32 33h117q15 0 24 -9t9 -24z" />
    <glyph glyph-name="udotbelow" unicode="&#x1ee5;" horiz-adv-x="1181" 
d="M1022 1055l6 -1022q0 -15 -9 -24t-24 -9h-121q-32 0 -32 33l2 129h-15q-129 -189 -335 -189q-159 0 -250.5 107t-91.5 307l4 668q0 32 32 32h109q33 0 33 -32l4 -625q3 -285 217 -285q118 0 195.5 84t97.5 248l4 578q0 32 33 32h108q33 0 33 -32zM694 -201v-147
q0 -33 -32 -33h-117q-15 0 -24 9t-9 24v147q0 15 9 24t24 9h117q32 0 32 -33z" />
    <glyph glyph-name="Ygrave" unicode="&#x1ef2;" horiz-adv-x="1224" 
d="M666 1667h-45q-22 0 -41 19l-197 241q-13 17 -7.5 29t25.5 12h105q28 0 39 -22l143 -240q9 -17 3 -28t-25 -11zM707 627l4 -594q0 -15 -9 -24t-24 -9h-125q-15 0 -24 9t-9 24l4 594l-475 823q-9 17 -3 28t26 11h127q27 0 39 -23l372 -647h13l374 647q11 23 39 23h117
q20 0 26 -11t-3 -28z" />
    <glyph glyph-name="ygrave" unicode="&#x1ef3;" horiz-adv-x="1075" 
d="M596 1255h-45q-22 0 -41 19l-197 242q-13 17 -7.5 28.5t26.5 11.5h104q28 0 39 -22l143 -240q9 -17 3 -28t-25 -11zM887 1087h104q36 0 27 -36l-516 -1475q-12 -27 -39 -27h-123q-19 0 -26 10t-1 27l131 367l-389 1098q-9 36 27 36h106q28 0 37 -26l297 -860h15l311 860
q12 26 39 26z" />
    <glyph glyph-name="Ydotbelow" unicode="&#x1ef4;" horiz-adv-x="1224" 
d="M707 627l4 -594q0 -15 -9 -24t-24 -9h-125q-15 0 -24 9t-9 24l4 594l-475 823q-9 17 -3 28t26 11h127q27 0 39 -23l372 -647h13l374 647q11 23 39 23h117q20 0 26 -11t-3 -28zM524 -348v147q0 15 9 24t24 9h117q15 0 24 -9t9 -24v-147q0 -15 -9 -24t-24 -9h-117
q-15 0 -24 9t-9 24z" />
    <glyph glyph-name="ydotbelow" unicode="&#x1ef5;" horiz-adv-x="1075" 
d="M887 1087h104q36 0 27 -36l-516 -1475q-12 -27 -39 -27h-123q-19 0 -26 10t-1 27l131 367l-389 1098q-9 36 27 36h106q28 0 37 -26l297 -860h15l311 860q12 26 39 26zM776 -348v147q0 15 9 24t24 9h117q32 0 32 -33v-147q0 -33 -32 -33h-117q-15 0 -24 9t-9 24z" />
    <glyph glyph-name="Ytilde" unicode="&#x1ef8;" horiz-adv-x="1224" 
d="M512 1804q-52 0 -59 -69q-3 -33 -35 -33h-45q-15 0 -23.5 9t-7.5 24q5 84 45.5 136t122.5 52q36 0 67 -14t52 -33.5t39.5 -39.5t38 -34t38.5 -14q47 0 54 70q3 32 35 32h43q33 0 30 -32q-5 -81 -44 -135t-118 -54q-33 0 -62 14t-49 33.5t-38.5 39.5t-40 34t-43.5 14z
M707 627l4 -594q0 -15 -9 -24t-24 -9h-125q-15 0 -24 9t-9 24l4 594l-475 823q-9 17 -3 28t26 11h127q27 0 39 -23l372 -647h13l374 647q11 23 39 23h117q20 0 26 -11t-3 -28z" />
    <glyph glyph-name="ytilde" unicode="&#x1ef9;" horiz-adv-x="1075" 
d="M440 1393q-51 0 -59 -70q-3 -33 -35 -33h-45q-15 0 -23.5 9t-7.5 24q5 84 45.5 136t122.5 52q36 0 67 -14t52.5 -33.5t40 -39.5t38 -34t38.5 -14q46 0 53 70q3 33 35 33h43q15 0 23.5 -9t7.5 -24q-5 -81 -44 -135t-118 -54q-41 0 -76 21.5t-55.5 46.5t-48 46.5
t-54.5 21.5zM887 1087h104q36 0 27 -36l-516 -1475q-12 -27 -39 -27h-123q-19 0 -26 10t-1 27l131 367l-389 1098q-9 36 27 36h106q28 0 37 -26l297 -860h15l311 860q12 26 39 26z" />
    <glyph glyph-name="endash" unicode="&#x2013;" horiz-adv-x="1468" 
d="M1270 621v-93q0 -32 -33 -32h-1006q-32 0 -32 32v93q0 32 32 32h1006q33 0 33 -32z" />
    <glyph glyph-name="emdash" unicode="&#x2014;" horiz-adv-x="1824" 
d="M1626 621v-93q0 -32 -33 -32h-1362q-32 0 -32 32v93q0 32 32 32h1362q33 0 33 -32z" />
    <glyph glyph-name="quoteleft" unicode="&#x2018;" horiz-adv-x="591" 
d="M219 995v127q0 132 31 216.5t100 156.5q21 21 45 6l8 -4q33 -17 11 -45q-36 -52 -50.5 -100t-4 -89.5t48.5 -68.5q22 -19 22 -41v-158q0 -32 -33 -32h-145q-33 0 -33 32z" />
    <glyph glyph-name="quoteright" unicode="&#x2019;" horiz-adv-x="473" 
d="M373 1464v-127q0 -134 -30.5 -218t-100.5 -154q-21 -21 -45 -9l-11 7q-30 17 -8 45q36 52 51 100t5 89.5t-48 68.5q-22 19 -22 41v157q0 15 9 24t24 9h143q15 0 24 -9t9 -24z" />
    <glyph glyph-name="quotesinglbase" unicode="&#x201a;" horiz-adv-x="614" 
d="M455 182v-127q0 -134 -30.5 -217.5t-100.5 -154.5q-21 -21 -45 -9l-11 7q-30 17 -8 45q36 52 51 100t5 89.5t-48 68.5q-22 19 -22 41v157q0 15 9 24t24 9h143q15 0 24 -9t9 -24z" />
    <glyph glyph-name="quotedblleft" unicode="&#x201c;" horiz-adv-x="980" 
d="M219 995v127q0 134 30.5 218t100.5 155q20 20 45 8l11 -6q30 -17 8 -45q-36 -52 -51 -100t-5 -89.5t48 -68.5q22 -19 22 -41v-158q0 -32 -33 -32h-143q-33 0 -33 32zM608 995v127q0 134 30.5 218t100.5 155q20 20 45 8l11 -6q30 -17 8 -45q-36 -52 -51 -100t-5 -89.5
t48 -68.5q22 -19 22 -41v-158q0 -32 -33 -32h-143q-33 0 -33 32z" />
    <glyph glyph-name="quotedblright" unicode="&#x201d;" horiz-adv-x="860" 
d="M373 1456v-129q0 -132 -31 -216.5t-100 -154.5q-20 -20 -45 -8l-11 6q-30 17 -8 45q36 52 50.5 100t4 89.5t-48.5 68.5q-22 19 -22 41v158q0 15 9 24t24 9h145q15 0 24 -9t9 -24zM762 1456v-129q0 -132 -31 -216.5t-100 -154.5q-20 -20 -45 -8l-11 6q-30 17 -8 45
q36 52 50.5 100t4 89.5t-48.5 68.5q-22 19 -22 41v158q0 15 9 24t24 9h145q15 0 24 -9t9 -24z" />
    <glyph glyph-name="quotedblbase" unicode="&#x201e;" horiz-adv-x="614" 
d="M279 215h143q15 0 24 -9t9 -24v-127q0 -134 -30.5 -217.5t-100.5 -154.5q-21 -21 -45 -9l-11 7q-30 17 -8 45q36 52 51 100t5 89.5t-48 68.5q-22 19 -22 41v157q0 15 9 24t24 9z" />
    <glyph glyph-name="dagger" unicode="&#x2020;" horiz-adv-x="1277" 
d="M1032 641v-76q0 -15 -9 -24t-24 -9h-288l6 -931q0 -15 -9 -24t-24 -9h-90q-15 0 -24 9t-9 24l4 931h-286q-15 0 -24 9t-9 24v76q0 15 9 24t24 9h286l2 364q0 15 9 24t24 9h76q15 0 24 -9t9 -24l2 -364h288q15 0 24 -9t9 -24z" />
    <glyph glyph-name="daggerdbl" unicode="&#x2021;" horiz-adv-x="1277" 
d="M711 532v-360h288q15 0 24 -9t9 -24v-76q0 -32 -33 -32h-288l2 -430q0 -15 -9 -24t-24 -9h-82q-15 0 -24 9t-9 24v430h-286q-33 0 -33 32v76q0 15 9 24t24 9h286l2 360h-288q-15 0 -24 9t-9 24v76q0 15 9 24t24 9h288v364q0 15 9 24t24 9h76q15 0 24 -9t9 -24l2 -364h288
q15 0 24 -9t9 -24v-76q0 -15 -9 -24t-24 -9h-288z" />
    <glyph glyph-name="bullet" unicode="&#x2022;" horiz-adv-x="1081" 
d="M541 866q114 0 193 -79t79 -193t-79 -193t-193 -79t-193.5 79t-79.5 193t79.5 193t193.5 79z" />
    <glyph glyph-name="ellipsis" unicode="&#x2026;" horiz-adv-x="1783" 
d="M416 231v-157q0 -15 -9 -24t-24 -9h-143q-15 0 -24 9t-9 24v157q0 15 9 24t24 9h143q15 0 24 -9t9 -24zM1008 231v-157q0 -15 -9 -24t-24 -9h-144q-32 0 -32 33v157q0 33 32 33h144q15 0 24 -9t9 -24zM1599 231v-157q0 -33 -32 -33h-144q-32 0 -32 33v157q0 33 32 33h144
q32 0 32 -33z" />
    <glyph glyph-name="perthousand" unicode="&#x2030;" horiz-adv-x="2256" 
d="M381 1513q119 0 202 -83t83 -201q0 -120 -83 -203.5t-202 -83.5q-120 0 -203.5 83.5t-83.5 203.5q0 119 83.5 201.5t203.5 82.5zM1370 1456l-989 -1436q-14 -20 -39 -20h-98q-21 0 -27.5 12t4.5 27l991 1436q14 20 39 20h97q21 0 27 -12t-5 -27zM381 1378
q-63 0 -107.5 -43t-44.5 -106t44.5 -107.5t107.5 -44.5q62 0 105.5 44.5t43.5 107.5t-43.5 106t-105.5 43zM1219 553q118 0 201 -83t83 -202q0 -120 -82.5 -203t-201.5 -83q-120 0 -203.5 83t-83.5 203q0 119 83.5 202t203.5 83zM1860 553q118 0 201 -83t83 -202
q0 -120 -82.5 -203t-201.5 -83t-203 83t-84 203q0 118 84 201.5t203 83.5zM1219 418q-63 0 -107.5 -43.5t-44.5 -106.5t44.5 -107t107.5 -44q62 0 105.5 44t43.5 107t-43.5 106.5t-105.5 43.5zM1860 418q-63 0 -107.5 -43.5t-44.5 -106.5t44.5 -107t107.5 -44q62 0 106.5 44
t44.5 107t-44.5 106.5t-106.5 43.5z" />
    <glyph glyph-name="guilsinglleft" unicode="&#x2039;" horiz-adv-x="800" 
d="M606 860v-96q0 -25 -20 -39l-273 -178l273 -176q20 -14 20 -39v-96q0 -20 -11 -26.5t-28 5.5l-350 225q-20 14 -20 39v135q0 25 20 39l350 228q17 12 28 5.5t11 -26.5z" />
    <glyph glyph-name="guilsinglright" unicode="&#x203a;" horiz-adv-x="800" 
d="M236 881l350 -226q20 -14 20 -39v-135q0 -25 -20 -39l-350 -227q-17 -12 -28 -5.5t-11 26.5v98q0 25 20 39l272 176l-272 176q-20 14 -20 39v96q0 20 11 26.5t28 -5.5z" />
    <glyph glyph-name="zerosuperior" unicode="&#x2070;" horiz-adv-x="641" 
d="M324 1497q101 0 162 -71t61 -199q0 -131 -64 -206t-166 -75q-99 0 -161 73t-62 202t64 202.5t166 73.5zM317 1393q-48 0 -77 -43t-29 -123q0 -88 33 -132t80 -44q49 0 77.5 43.5t28.5 126.5q0 87 -32.5 129.5t-80.5 42.5z" />
    <glyph glyph-name="foursuperior" unicode="&#x2074;" horiz-adv-x="677" 
d="M584 1106v-25q0 -32 -33 -32h-72v-62q0 -15 -9 -24t-24 -9h-47q-32 0 -32 33v62h-240q-33 0 -33 32v35q0 38 12 55l246 299q16 19 31 19h61q15 0 24 -9t9 -24l2 -317h72q15 0 24 -9t9 -24zM369 1139l2 202h-6l-162 -198v-4h166z" />
    <glyph glyph-name="fivesuperior" unicode="&#x2075;" horiz-adv-x="630" 
d="M360 1311q76 0 125.5 -47t49.5 -125q0 -86 -58 -139.5t-162 -53.5q-86 0 -141.5 35t-71.5 88q-6 15 2.5 25t26.5 10h53q23 0 39 -23q33 -39 99 -39q46 0 71 23t25 61q0 39 -26.5 63.5t-72.5 24.5q-37 0 -77 -14q-28 -8 -39 -8h-56q-33 0 -30 35l26 231q3 31 35 31h303
q15 0 24 -9t9 -24v-31q0 -32 -33 -32h-235l-15 -113h9q51 31 120 31z" />
    <glyph glyph-name="sixsuperior" unicode="&#x2076;" horiz-adv-x="657" 
d="M373 1288q85 0 137.5 -46.5t52.5 -119.5q0 -80 -63.5 -128t-153.5 -48q-102 0 -169.5 66.5t-67.5 195.5q0 133 65 211t176 78q69 0 121 -31.5t72 -79.5q6 -17 -2.5 -26.5t-26.5 -9.5h-47q-23 0 -39 22q-28 31 -78 31q-54 0 -86.5 -40.5t-38.5 -109.5h8q68 35 140 35z
M356 1040q39 0 64.5 18.5t25.5 57.5q0 33 -25 57.5t-75 24.5q-65 0 -119 -31q10 -66 45 -96.5t84 -30.5z" />
    <glyph glyph-name="sevensuperior" unicode="&#x2077;" horiz-adv-x="614" 
d="M127 1489h358q15 0 24 -9t9 -24v-29q0 -17 -12 -41q-113 -194 -197 -405q-9 -27 -37 -27h-71q-20 0 -26.5 11t1.5 28q98 214 205 383v8h-254q-15 0 -24 9t-9 24v39q0 15 9 24t24 9z" />
    <glyph glyph-name="eightsuperior" unicode="&#x2078;" horiz-adv-x="651" 
d="M326 1497q88 0 142 -41.5t54 -105.5q0 -80 -84 -113v-6q45 -13 75 -48t30 -85q0 -68 -57 -110t-158 -42q-100 0 -159.5 42t-59.5 110q0 50 30.5 84t75.5 49v8q-84 25 -84 107q0 66 54 108.5t141 42.5zM326 1411q-41 0 -64.5 -17.5t-23.5 -47.5q0 -29 23.5 -47.5
t64.5 -18.5q43 0 65.5 18.5t22.5 47.5q0 31 -23.5 48t-64.5 17zM326 1182q-49 0 -77 -22t-28 -56q0 -33 27.5 -54.5t77.5 -21.5q51 0 77.5 21t26.5 55t-27 56t-77 22z" />
    <glyph glyph-name="ninesuperior" unicode="&#x2079;" horiz-adv-x="700" 
d="M358 1497q101 0 167.5 -66t66.5 -196q0 -134 -66.5 -211.5t-181.5 -77.5q-74 0 -125.5 31.5t-73.5 79.5q-6 17 2 27t27 10h45q21 0 41 -23q31 -31 84 -31q59 0 92.5 41.5t38.5 110.5h-8q-61 -35 -137 -35q-85 0 -136 45.5t-51 120.5q0 80 62.5 127t152.5 47zM358 1247
q61 0 115 31q-11 68 -46 97.5t-79 29.5q-40 0 -65 -20.5t-25 -55.5q0 -33 25 -57.5t75 -24.5z" />
    <glyph glyph-name="euro" unicode="&#x20ac;" horiz-adv-x="1431" 
d="M963 135q128 0 254 49q31 13 40 -20l19 -82q6 -28 -19 -43q-135 -66 -309 -66q-262 0 -442 150t-236 403h-143q-15 0 -24 9t-9 24v78q0 15 9 24t24 9h123q-2 23 -2 69q0 28 4 82h-125q-15 0 -24 9t-9 24v78q0 15 9 24t24 9h145q60 254 244.5 403.5t441.5 149.5
q163 0 299 -64q28 -13 19 -41l-25 -92q-9 -31 -43 -18q-138 55 -264 55q-182 0 -312 -103t-179 -290l465 2q32 0 32 -33v-78q0 -33 -32 -33l-488 -2q-2 -20 -2 -65q0 -28 4 -86l486 2q32 0 32 -33v-78q0 -33 -32 -33l-461 -2q53 -184 185.5 -287.5t320.5 -103.5z" />
    <glyph glyph-name="ruble" unicode="&#x20bd;" horiz-adv-x="1343" 
d="M188 1489h566q222 0 358.5 -123t136.5 -322q0 -200 -137.5 -331t-357.5 -131h-416l2 -154h348q15 0 24 -9t9 -24v-92q0 -15 -9 -24t-24 -9h-348l2 -237q0 -15 -9 -24t-24 -9h-129q-15 0 -24 9t-9 24l3 237h-125q-15 0 -24 9t-9 24v92q0 15 9 24t24 9h125l6 1028
q0 33 32 33zM338 739h401q156 0 243 77.5t87 209.5q0 137 -91 220t-239 83h-405z" />
    <glyph glyph-name="numero" unicode="&#x2116;" horiz-adv-x="2222" 
d="M1825 799q-146 0 -249 104t-103 250t103 250t249 104q147 0 250.5 -103.5t103.5 -250.5t-103.5 -250.5t-250.5 -103.5zM1180 1489h110q15 0 24 -9t9 -24l6 -1423q0 -15 -9 -24t-24 -9h-172q-28 0 -39 23l-753 1261l6 -1251q0 -15 -9 -24t-24 -9h-125q-15 0 -24 9t-9 24
l9 1423q0 33 32 33h179q27 0 39 -23l735 -1224l6 1214q0 15 9 24t24 9zM1825 1354q-85 0 -143 -58t-58 -143q0 -84 58.5 -142.5t142.5 -58.5q83 0 143 59t60 142q0 84 -59.5 142.5t-143.5 58.5zM1501 686h649q15 0 24 -9t9 -24v-94q0 -15 -9 -24t-24 -9h-649q-15 0 -24 9
t-9 24v94q0 15 9 24t24 9z" />
    <glyph glyph-name="trademark" unicode="&#x2122;" horiz-adv-x="1345" 
d="M586 1456v-20q0 -15 -9 -24t-24 -9h-131v-410q0 -32 -33 -32h-31q-32 0 -32 32l2 410l-131 -2q-15 0 -24 9t-9 24v22q0 15 9 24t24 9h356q15 0 24 -9t9 -24zM1165 1456l15 -463q1 -15 -7.5 -23.5t-23.5 -8.5h-27q-32 0 -32 32l-9 348h-6l-104 -354q-9 -26 -37 -26h-35
q-28 0 -37 26l-110 354h-9l-8 -348q0 -32 -33 -32h-24q-15 0 -23.5 8.5t-7.5 23.5l15 463q0 33 32 33h72q28 0 37 -27l108 -360h9l108 360q9 27 37 27h68q32 0 32 -33z" />
    <glyph glyph-name="minus" unicode="&#x2212;" horiz-adv-x="1562" 
d="M1389 594v-92q0 -15 -9 -24t-24 -9h-1006q-15 0 -24 9t-9 24v92q0 15 9 24t24 9h1006q15 0 24 -9t9 -24z" />
    <glyph glyph-name="infinity" unicode="&#x221e;" horiz-adv-x="2207" 
d="M1565 1044q176 0 286.5 -125.5t110.5 -312.5t-112.5 -308.5t-301.5 -121.5q-129 0 -230.5 67.5t-225.5 223.5q-113 -146 -218 -218.5t-233 -72.5q-176 0 -285.5 125t-109.5 311q0 187 113.5 309.5t302.5 122.5q130 0 231 -68t223 -226q111 148 215.5 221t233.5 73z
M659 352q93 0 175.5 66.5t166.5 193.5q-94 139 -172.5 202t-169.5 63q-105 0 -170 -70.5t-65 -181.5q0 -122 64 -197.5t171 -75.5zM1548 344q106 0 171 70.5t65 181.5q0 122 -65 197t-171 75q-93 0 -174 -66.5t-168 -193.5q91 -140 170 -202t172 -62z" />
    </font>
</defs>
</svg>
