<?xml version="1.0" standalone="no"?>
<!DOCTYPE svg PUBLIC "-//W3C//DTD SVG 1.1//EN" "http://www.w3.org/Graphics/SVG/1.1/DTD/svg11.dtd" >
<svg xmlns="http://www.w3.org/2000/svg" xmlns:xlink="http://www.w3.org/1999/xlink" version="1.1">
<metadata>
Created by FontForge 20170731 at Wed Jan 13 12:26:54 2021
 By Aleksey,,,
Copyright (c) 2011 by Vincenzo Vuono. All rights reserved.
</metadata>
<defs>
<font id="Gravity-Bold" horiz-adv-x="1222" >
  <font-face 
    font-family="Gravity"
    font-weight="700"
    font-stretch="normal"
    units-per-em="2048"
    panose-1="0 0 8 0 0 0 0 0 0 0"
    ascent="1638"
    descent="-410"
    x-height="1100"
    cap-height="1499"
    bbox="-68 -569.618 2310 2019"
    underline-thickness="174"
    underline-position="-624"
    unicode-range="U+0020-F8FF"
  />
<missing-glyph horiz-adv-x="1429" 
d="M182 1499h1055q41 0 41 -41v-1417q0 -41 -41 -41h-1055q-41 0 -41 41v1417q0 41 41 41zM1081 1321h-743v-1143h743v1143zM567 260h-92q-23 0 -32 12.5t-1 34.5l179 441l-179 440q-8 22 1 34.5t32 12.5h92q36 0 47 -33l97 -233l94 233q11 33 47 33h92q23 0 32 -12.5
t1 -34.5l-178 -440l178 -441q8 -22 -1 -34.5t-32 -12.5h-92q-36 0 -47 33l-94 233l-97 -233q-11 -33 -47 -33z" />
    <glyph glyph-name=".notdef" horiz-adv-x="1429" 
d="M182 1499h1055q41 0 41 -41v-1417q0 -41 -41 -41h-1055q-41 0 -41 41v1417q0 41 41 41zM1081 1321h-743v-1143h743v1143zM567 260h-92q-23 0 -32 12.5t-1 34.5l179 441l-179 440q-8 22 1 34.5t32 12.5h92q36 0 47 -33l97 -233l94 233q11 33 47 33h92q23 0 32 -12.5
t1 -34.5l-178 -440l178 -441q8 -22 -1 -34.5t-32 -12.5h-92q-36 0 -47 33l-94 233l-97 -233q-11 -33 -47 -33z" />
    <glyph glyph-name=".null" horiz-adv-x="0" 
 />
    <glyph glyph-name="nonmarkingreturn" horiz-adv-x="682" 
 />
    <glyph glyph-name="space" unicode=" " horiz-adv-x="403" 
 />
    <glyph glyph-name="exclam" unicode="!" horiz-adv-x="782" 
d="M518 1470l10 -956q0 -41 -41 -41h-172q-41 0 -41 41l11 956q0 41 41 41h151q41 0 41 -41zM532 219v-178q0 -41 -40 -41h-201q-41 0 -41 41v178q0 41 41 41h201q40 0 40 -41z" />
    <glyph glyph-name="quotedbl" unicode="&#x22;" horiz-adv-x="1085" 
d="M535 1470l-84 -464q-6 -37 -43 -37h-109q-45 0 -39 43l64 465q6 39 45 39h129q22 0 31.5 -12t5.5 -34zM903 1470l-82 -464q-6 -37 -43 -37h-108q-45 0 -39 43l63 465q6 39 45 39h127q22 0 31.5 -12t5.5 -34z" />
    <glyph glyph-name="numbersign" unicode="#" horiz-adv-x="1568" 
d="M1151 913l-47 -227h231q43 0 37 -45l-22 -109q-9 -36 -45 -36h-240l-94 -459q-9 -37 -45 -37h-121q-44 0 -35 45l94 451h-280l-95 -459q-9 -37 -45 -37h-120q-44 0 -35 45l94 451h-236q-43 0 -34 45l22 108q9 37 45 37h242l47 227h-233q-43 0 -37 45l22 109q9 37 45 37
h244l74 356q9 37 45 37h114q43 0 37 -45l-71 -348h282l74 356q9 37 45 37h115q43 0 37 -45l-72 -348h231q43 0 37 -45l-22 -109q-9 -37 -45 -37h-240zM952 913h-282l-47 -227h280z" />
    <glyph glyph-name="dollar" unicode="$" horiz-adv-x="1325" 
d="M1233 426q0 -172 -129 -272t-350 -111l6 -244q3 -41 -39 -41h-125q-42 0 -39 41l6 252q-101 15 -184.5 52.5t-138 88.5t-89.5 105.5t-51 112.5q-12 45 37 45h148q31 0 47 -29q105 -188 379 -188q282 0 282 157q0 77 -74.5 137t-254.5 117l-72 23q-216 66 -324 156
t-114 229q-6 155 109 257t300 128l-6 235q-3 41 39 41h125q42 0 39 -41l-6 -233q164 -21 277 -110t165 -222q9 -22 -0.5 -34.5t-32.5 -12.5h-141q-32 0 -49 29q-107 159 -324 159q-129 0 -194.5 -45t-65.5 -118q0 -72 72 -119.5t256 -100.5l63 -20q241 -70 347 -176.5
t106 -247.5z" />
    <glyph glyph-name="percent" unicode="%" horiz-adv-x="1681" 
d="M410 1518q132 0 224.5 -94t92.5 -226t-92.5 -224.5t-224.5 -92.5t-226 92.5t-94 224.5t94 226t226 94zM1460 1446l-1014 -1421q-19 -25 -49 -25h-139q-26 0 -33.5 14.5t6.5 34.5l1018 1421q19 25 49 25h136q26 0 33 -14.5t-7 -34.5zM410 1337q-59 0 -99.5 -40.5
t-40.5 -98.5q0 -57 41 -98t99 -41q57 0 98 41t41 98q0 58 -41 98.5t-98 40.5zM1278 614q132 0 224.5 -92.5t92.5 -224.5t-92.5 -226t-224.5 -94t-226 94t-94 226t94 224.5t226 92.5zM1278 436q-58 0 -98.5 -40t-40.5 -99q0 -57 40.5 -98t98.5 -41q57 0 98 41t41 98
q0 58 -41 98.5t-98 40.5z" />
    <glyph glyph-name="ampersand" unicode="&#x26;" horiz-adv-x="1601" 
d="M1440 0h-205q-31 0 -51 23l-62 65q-178 -133 -444 -133q-239 0 -388 108t-149 291q0 135 84.5 239t249.5 206q-87 107 -122.5 184.5t-35.5 165.5q0 166 111.5 274.5t300.5 108.5q186 0 291.5 -104.5t105.5 -262.5q0 -122 -70.5 -224.5t-230.5 -203.5l277 -299
q18 64 18 140q0 36 -2 59q-3 43 39 43h146q39 0 45 -37q6 -40 6 -84q0 -170 -80 -305l188 -203q19 -20 12.5 -35.5t-34.5 -15.5zM727 1329q-84 0 -132 -52t-48 -122q0 -96 139 -264q106 69 158.5 130t52.5 134q0 71 -43.5 122.5t-126.5 51.5zM692 168q175 0 283 82l-363 393
q-121 -76 -176 -142t-55 -134q0 -90 82.5 -144.5t228.5 -54.5z" />
    <glyph glyph-name="quotesingle" unicode="'" horiz-adv-x="714" 
d="M535 1470l-84 -464q-6 -37 -43 -37h-109q-45 0 -39 43l64 465q6 39 45 39h129q22 0 31.5 -12t5.5 -34z" />
    <glyph glyph-name="parenleft" unicode="(" horiz-adv-x="894" 
d="M649 1513l49 -34q31 -25 11 -58q-246 -361 -246 -893q0 -263 63.5 -491t182.5 -404q21 -34 -13 -55l-47 -33q-31 -24 -57 2q-182 175 -286.5 433.5t-104.5 547.5t104.5 547.5t286.5 433.5q28 25 57 4z" />
    <glyph glyph-name="parenright" unicode=")" horiz-adv-x="894" 
d="M244 -457l-47 33q-31 25 -11 57q246 364 246 895q0 264 -63.5 491.5t-182.5 401.5q-20 33 11 58l47 34q31 22 57 -4q183 -175 288 -434t105 -547q0 -290 -104.5 -548t-288.5 -433q-28 -25 -57 -4z" />
    <glyph glyph-name="asterisk" unicode="*" horiz-adv-x="987" 
d="M608 1145l195 -82q40 -15 18 -55l-45 -78q-21 -37 -57 -12l-166 126l25 -206q3 -43 -39 -43h-93q-42 0 -36 43l26 209l-170 -127q-36 -25 -57 12l-45 78q-19 40 20 55l193 82l-193 84q-41 15 -18 53l45 78q21 37 57 12l170 -129l-26 213q-3 43 39 43l90 -2q43 0 37 -43
l-25 -211l170 127q37 26 55 -12l45 -78q19 -40 -20 -55z" />
    <glyph glyph-name="plus" unicode="+" horiz-adv-x="1570" 
d="M1325 612v-123q0 -40 -41 -40h-391v-398q0 -41 -41 -41h-131q-41 0 -41 41v398h-393q-41 0 -41 40v123q0 41 41 41h393v396q0 41 41 41h131q41 0 41 -41v-396h391q41 0 41 -41z" />
    <glyph glyph-name="comma" unicode="," horiz-adv-x="778" 
d="M528 209v-143q0 -160 -38 -262t-125 -185q-22 -25 -56 -8l-18 10q-38 18 -10 57q44 61 61 118t1 107t-67 81q-30 18 -30 47v178q0 41 41 41h200q41 0 41 -41z" />
    <glyph glyph-name="hyphen" unicode="-" horiz-adv-x="1271" 
d="M1026 641v-131q0 -41 -41 -41h-698q-41 0 -41 41v131q0 41 41 41h698q41 0 41 -41z" />
    <glyph glyph-name="period" unicode="." horiz-adv-x="679" 
d="M475 207v-164q0 -41 -41 -41h-188q-41 0 -41 41v164q0 41 41 41h188q41 0 41 -41z" />
    <glyph glyph-name="slash" unicode="/" horiz-adv-x="892" 
d="M825 1450l-503 -1417q-11 -33 -48 -33h-174q-22 0 -30.5 12.5t-1.5 34.5l505 1417q11 33 48 33h172q22 0 30.5 -12.5t1.5 -34.5z" />
    <glyph glyph-name="zero" unicode="0" horiz-adv-x="1265" 
d="M641 1522q249 0 391 -196.5t142 -555.5q0 -371 -147.5 -580.5t-401.5 -209.5q-248 0 -391.5 203t-143.5 565q0 367 148 570.5t403 203.5zM621 1311q-146 0 -216.5 -132t-70.5 -401q0 -293 81.5 -440.5t231.5 -147.5q287 0 287 541q0 291 -81.5 435.5t-231.5 144.5z" />
    <glyph glyph-name="one" unicode="1" horiz-adv-x="1132" 
d="M848 0h-178q-41 0 -41 41l8 1266h-16l-357 -306q-31 -28 -57 5l-88 96q-28 31 4 57l383 324q24 18 51 18h283q41 0 41 -41l8 -1419q0 -41 -41 -41z" />
    <glyph glyph-name="two" unicode="2" horiz-adv-x="1263" 
d="M522 221h608q41 0 41 -41v-139q0 -41 -41 -41h-909q-41 0 -41 41v115q0 40 25 67l391 404q154 161 229.5 273.5t75.5 211.5q0 93 -67.5 153t-180.5 60q-97 0 -169.5 -48.5t-108.5 -143.5q-11 -35 -45 -35h-146q-49 0 -37 45q20 77 62 145t105.5 124.5t155 90t198.5 33.5
q111 0 200.5 -35.5t145 -95.5t85 -133.5t29.5 -153.5q0 -75 -26 -150.5t-82 -158t-113 -151t-149 -169.5l-236 -258v-10z" />
    <glyph glyph-name="three" unicode="3" horiz-adv-x="1255" 
d="M897 799q136 -49 201 -144t65 -223q0 -91 -32 -172t-94 -145.5t-162.5 -102t-227.5 -37.5q-121 0 -222 34t-168 90.5t-108.5 126t-54.5 145.5q-3 20 7.5 31.5t31.5 11.5h162q33 0 45 -37q26 -93 104 -141t189 -48q139 0 219 68t80 190q0 124 -89.5 183t-301.5 59h-56
q-41 0 -41 41v119q0 41 41 41h56q350 0 350 211q0 100 -70 162.5t-186 62.5q-100 0 -173.5 -48.5t-109.5 -143.5q-11 -35 -45 -35h-145q-46 0 -37 45q15 60 43.5 115t74 106.5t103 89t136 60t167.5 22.5q112 0 203 -35.5t148 -94.5t87.5 -132t30.5 -152q0 -104 -54 -189
t-167 -134z" />
    <glyph glyph-name="four" unicode="4" horiz-adv-x="1372" 
d="M1282 463v-127q0 -41 -41 -41h-207l2 -254q0 -41 -41 -41h-164q-40 0 -40 41l2 254h-662q-41 0 -41 41v119q0 68 25 108l647 899q26 39 65 39h158q41 0 41 -41l6 -956h209q41 0 41 -41zM793 504l4 653h-11l-460 -647v-6h467z" />
    <glyph glyph-name="five" unicode="5" horiz-adv-x="1253" 
d="M1104 1460v-137q0 -41 -41 -41h-627l-35 -371h19q124 58 254 58q223 0 355 -141.5t132 -358.5q0 -78 -18.5 -149.5t-59 -135t-99.5 -109.5t-145 -73t-190 -27q-118 0 -219 34t-169.5 90.5t-111.5 126.5t-55 145q-6 43 39 43h162q36 0 45 -37q26 -91 103 -140t198 -49
q289 0 289 281q0 142 -73 214.5t-216 72.5q-135 0 -240 -72q-22 -17 -51 -14l-145 4q-42 3 -39 45l67 743q3 39 43 39h787q41 0 41 -41z" />
    <glyph glyph-name="six" unicode="6" horiz-adv-x="1290" 
d="M686 940q231 0 371.5 -138t140.5 -345q0 -119 -41 -213.5t-112.5 -154t-165.5 -91t-203 -31.5q-134 0 -241.5 45t-186.5 136.5t-121.5 238.5t-42.5 342q0 364 162 585.5t434 221.5q191 0 318.5 -107t162.5 -274q4 -20 -5.5 -31.5t-31.5 -11.5l-141 -2q-35 0 -47 35
q-31 86 -102 131t-162 45q-153 0 -243.5 -126t-109.5 -355h25q166 100 342 100zM668 182q138 0 221.5 69t83.5 191q0 53 -17 101t-52.5 90t-100.5 67t-152 25q-182 0 -334 -107q15 -230 103 -333t248 -103z" />
    <glyph glyph-name="seven" unicode="7" horiz-adv-x="1226" 
d="M131 1501h963q41 0 41 -41v-108q0 -34 -27 -84q-316 -557 -573 -1235q-11 -33 -48 -33h-200q-23 0 -31.5 12.5t0.5 34.5q271 651 610 1217v18h-735q-41 0 -41 41v137q0 41 41 41z" />
    <glyph glyph-name="eight" unicode="8" horiz-adv-x="1273" 
d="M637 1532q215 0 348 -120t133 -302q0 -201 -174 -311v-6q109 -48 177.5 -146.5t68.5 -238.5q0 -207 -151 -330t-402 -123q-249 0 -401 123.5t-152 329.5q0 73 20.5 137.5t55.5 111.5t73.5 80t81.5 56v8q-157 101 -157 303q0 187 132 307.5t347 120.5zM637 1329
q-114 0 -183 -64.5t-69 -166.5q0 -100 67 -166t185 -66t185 66t67 166q0 102 -69.5 166.5t-182.5 64.5zM637 688q-140 0 -226.5 -75.5t-86.5 -194.5q0 -114 83 -182t230 -68q150 0 231.5 67.5t81.5 182.5q0 119 -86.5 194.5t-226.5 75.5z" />
    <glyph glyph-name="nine" unicode="9" horiz-adv-x="1335" 
d="M668 1536q95 0 177.5 -23.5t158.5 -80t129.5 -142t85.5 -217.5t32 -299q0 -382 -160.5 -594.5t-439.5 -212.5q-198 0 -329 106.5t-168 272.5q-9 42 36 45l152 4q35 0 47 -37q28 -87 101 -130.5t169 -43.5q161 0 252.5 127t106.5 365h-27q-171 -101 -346 -101
q-221 0 -354 130.5t-133 334.5q0 216 139 356t371 140zM686 786q168 0 330 105q-8 102 -30.5 179.5t-54 125t-75 76.5t-87.5 40t-97 11q-135 0 -212 -74.5t-77 -214.5q0 -47 15.5 -88.5t48.5 -78.5t94.5 -59t144.5 -22z" />
    <glyph glyph-name="colon" unicode=":" horiz-adv-x="702" 
d="M487 1094v-176q0 -41 -41 -41h-198q-41 0 -41 41v176q0 41 41 41h198q41 0 41 -41zM485 240v-179q0 -41 -41 -41h-198q-41 0 -41 41v179q0 41 41 41h198q41 0 41 -41z" />
    <glyph glyph-name="semicolon" unicode=";" horiz-adv-x="688" 
d="M483 1094v-176q0 -41 -41 -41h-200q-41 0 -41 41v176q0 41 41 41h200q41 0 41 -41zM483 209v-143q0 -159 -38.5 -261t-125.5 -186q-22 -25 -55 -8l-18 10q-38 18 -10 57q43 61 59.5 118t1 107t-65.5 81q-30 18 -30 47v178q0 41 41 41h200q41 0 41 -41z" />
    <glyph glyph-name="less" unicode="&#x3c;" horiz-adv-x="1464" 
d="M1219 1010v-127q0 -35 -31 -47l-696 -289l694 -283q33 -11 33 -47v-127q0 -23 -13 -31.5t-35 0.5l-895 373q-30 12 -30 47v131q0 34 30 49l895 381q22 9 35 1t13 -31z" />
    <glyph glyph-name="equal" unicode="=" horiz-adv-x="1576" 
d="M1329 815v-121q0 -41 -41 -41h-1001q-41 0 -41 41v121q0 41 41 41h1001q41 0 41 -41zM1329 346v-119q0 -41 -41 -41h-1001q-41 0 -41 41v119q0 41 41 41h1001q41 0 41 -41z" />
    <glyph glyph-name="greater" unicode="&#x3e;" horiz-adv-x="1464" 
d="M293 1040l895 -372q31 -12 31 -47v-132q0 -33 -31 -49l-895 -381q-22 -9 -34.5 -0.5t-12.5 31.5v127q0 35 30 47l697 289l-694 283q-33 11 -33 47v127q0 23 12.5 31t34.5 -1z" />
    <glyph glyph-name="question" unicode="?" horiz-adv-x="1226" 
d="M643 1536q116 0 209 -35.5t151.5 -96.5t89.5 -139t31 -167q0 -160 -98.5 -287.5t-300.5 -230.5v-111q0 -41 -41 -41h-176q-41 0 -41 41v172q0 35 33 49q215 100 300 192t85 201t-69 169.5t-187 60.5q-100 0 -174 -45t-105 -135q-12 -35 -47 -35h-156q-44 0 -41 28
q11 60 38 117.5t73.5 111t106 93.5t142.5 64t177 24zM686 182v-164q0 -41 -41 -41h-188q-41 0 -41 41v164q0 41 41 41h188q41 0 41 -41z" />
    <glyph glyph-name="at" unicode="@" horiz-adv-x="1910" 
d="M973 1341q174 0 322 -56.5t252 -156.5t163 -242t59 -308q0 -204 -85 -314t-234 -110q-92 0 -161.5 40.5t-108.5 114.5h-11q-95 -170 -276 -170q-151 0 -244.5 106t-93.5 285q0 188 99 303t241 115q65 0 121 -26.5t86 -67.5h6v31q0 41 41 41h117q41 0 41 -41v-336
q0 -93 32.5 -144t92.5 -51q61 0 95 57.5t34 172.5q0 251 -158.5 398.5t-415.5 147.5q-178 0 -319.5 -71t-224.5 -209.5t-83 -323.5q0 -258 162.5 -411.5t466.5 -153.5q112 0 240 19q45 6 45 -39v-121q0 -36 -37 -45q-123 -25 -252 -25q-257 0 -448.5 96.5t-293.5 271.5
t-102 406q0 241 109 428.5t298 288t425 100.5zM932 745q-80 0 -124 -54t-44 -144q0 -97 49.5 -152t124.5 -55q74 0 117 55.5t43 147.5v16q0 85 -45 135.5t-121 50.5z" />
    <glyph glyph-name="A" unicode="A" horiz-adv-x="1419" 
d="M987 436h-551l-141 -403q-11 -33 -47 -33h-168q-23 0 -32.5 12.5t-2.5 34.5l522 1419q11 33 47 33h195q36 0 47 -33l522 -1419q7 -22 -2.5 -34.5t-32.5 -12.5h-169q-37 0 -48 33zM911 655l-192 549h-12l-193 -549h397z" />
    <glyph glyph-name="B" unicode="B" horiz-adv-x="1417" 
d="M1126 791q97 -55 148 -142.5t51 -195.5q0 -193 -135.5 -323t-355.5 -130h-652q-41 0 -41 41l9 1417q0 41 40 41h582q214 0 343.5 -114.5t129.5 -294.5t-119 -299zM393 1286l2 -416h389q104 0 162 53t58 150q0 99 -69.5 156t-191.5 57h-350zM399 213h416q131 0 199.5 56.5
t68.5 158.5q0 106 -78 166.5t-223 60.5h-385z" />
    <glyph glyph-name="C" unicode="C" horiz-adv-x="1568" 
d="M815 1532q225 0 396.5 -117t244.5 -325q7 -22 -2.5 -35t-32.5 -13l-151 -2q-32 0 -49 29q-70 120 -179 184t-241 64q-99 0 -183.5 -36t-148 -104t-99.5 -173.5t-36 -237.5q0 -270 137.5 -426t362.5 -156q275 0 395 254q15 31 49 31l152 -2q23 0 32.5 -12.5t1.5 -32.5
q-30 -87 -84 -164.5t-133 -144.5t-192 -106.5t-244 -39.5q-213 0 -377.5 99t-254 275.5t-89.5 403.5q0 172 56 319.5t152.5 249.5t230.5 160t286 58z" />
    <glyph glyph-name="D" unicode="D" horiz-adv-x="1544" 
d="M190 1499h527q356 0 545.5 -195.5t189.5 -531.5q0 -133 -29.5 -250t-89.5 -213t-146.5 -164.5t-206.5 -106.5t-263 -38h-535q-41 0 -41 41l9 1417q0 41 40 41zM401 215h301q242 0 375 139.5t133 390.5q0 264 -132.5 402.5t-377.5 138.5h-307z" />
    <glyph glyph-name="E" unicode="E" horiz-adv-x="1239" 
d="M393 1280l2 -389h627q41 0 41 -41v-137q0 -41 -41 -41h-625l2 -453h709q41 0 41 -41v-137q0 -41 -41 -41h-926q-41 0 -41 41l9 1417q0 41 40 41h918q41 0 41 -41v-137q0 -41 -41 -41h-715z" />
    <glyph glyph-name="F" unicode="F" horiz-adv-x="1241" 
d="M393 1280l2 -362h627q41 0 41 -41v-138q0 -41 -41 -41h-625l4 -657q0 -41 -41 -41h-178q-41 0 -41 41l9 1417q0 41 40 41h920q41 0 41 -41v-137q0 -41 -41 -41h-717z" />
    <glyph glyph-name="G" unicode="G" horiz-adv-x="1630" 
d="M934 748h553q45 0 45 -52q-5 -151 -57 -284t-143.5 -232t-227 -156t-297.5 -57q-205 0 -366 99t-251 277.5t-90 406.5q0 170 56 316t153 248t231.5 160t288.5 58q218 0 389.5 -115t243.5 -307q9 -22 0 -34.5t-32 -12.5l-152 -4q-32 0 -49 28q-73 110 -181 170t-237 60
q-100 0 -184.5 -36t-148 -104t-99 -173.5t-35.5 -237.5q0 -270 137.5 -426t362.5 -156q156 0 273 91t159 253h-342q-41 0 -41 41v138q0 41 41 41z" />
    <glyph glyph-name="H" unicode="H" horiz-adv-x="1538" 
d="M1356 0h-178q-41 0 -41 41l4 631h-744l4 -631q0 -41 -41 -41h-178q-41 0 -41 41l9 1417q0 41 40 41h160q41 0 41 -41l4 -567h748l4 567q0 41 41 41h160q41 0 41 -41l8 -1417q0 -41 -41 -41z" />
    <glyph glyph-name="I" unicode="I" horiz-adv-x="788" 
d="M514 1458l10 -1417q0 -41 -41 -41h-176q-41 0 -41 41l6 1417q0 41 41 41h160q41 0 41 -41z" />
    <glyph glyph-name="J" unicode="J" horiz-adv-x="1040" 
d="M770 1460l6 -764q1 -158 -25 -274t-76 -195.5t-130.5 -128t-180 -71t-233.5 -25.5q-41 0 -41 41v133q0 41 41 41q220 7 305.5 108t87.5 353l4 782q0 41 41 41h160q41 0 41 -41z" />
    <glyph glyph-name="K" unicode="K" horiz-adv-x="1447" 
d="M616 707l-219 -213l4 -453q0 -41 -41 -41h-178q-41 0 -41 41l9 1417q0 41 40 41h160q41 0 41 -41l4 -682l717 703q20 20 49 20h195q28 0 34 -15.5t-14 -35.5l-600 -586l619 -813q17 -20 9.5 -34.5t-34.5 -14.5h-217q-30 0 -49 25z" />
    <glyph glyph-name="L" unicode="L" 
d="M399 219h731q41 0 41 -41v-137q0 -41 -41 -41h-948q-41 0 -41 41l9 1417q0 41 40 41h160q41 0 41 -41z" />
    <glyph glyph-name="M" unicode="M" horiz-adv-x="1828" 
d="M1647 0h-166q-41 0 -41 41l-19 1165l-377 -1173q-9 -33 -45 -33h-161q-37 0 -45 35l-385 1206l-19 -1200q0 -41 -41 -41h-166q-42 0 -39 41l47 1417q3 41 43 41h271q36 0 45 -33l371 -1140l368 1140q9 33 45 33h262q40 0 43 -41l48 -1417q3 -41 -39 -41z" />
    <glyph glyph-name="N" unicode="N" horiz-adv-x="1527" 
d="M1378 1458l8 -1417q0 -41 -40 -41h-234q-32 0 -49 29l-674 1181l6 -1169q0 -41 -41 -41h-172q-41 0 -41 41l9 1417q0 41 40 41h244q32 0 49 -29l652 -1134l6 1122q0 41 41 41h155q41 0 41 -41z" />
    <glyph glyph-name="O" unicode="O" horiz-adv-x="1634" 
d="M829 1532q152 0 284 -55t226.5 -153.5t148.5 -240.5t54 -309q0 -229 -96 -414t-264.5 -289t-374.5 -104q-152 0 -284.5 58t-228 160t-150 248.5t-54.5 316.5q0 226 97 405.5t265.5 278t376.5 98.5zM811 1317q-102 0 -188.5 -36t-151 -104t-101 -173.5t-36.5 -237.5
q0 -268 137 -425t352 -157q101 0 188 38.5t151 109.5t101 179t37 241q0 266 -136.5 415.5t-352.5 149.5z" />
    <glyph glyph-name="P" unicode="P" horiz-adv-x="1402" 
d="M190 1499h594q236 0 381.5 -129.5t145.5 -337.5q0 -212 -147 -352.5t-380 -140.5h-387l4 -498q0 -41 -41 -41h-178q-41 0 -41 41l9 1417q0 41 40 41zM397 752h369q148 0 225.5 67t77.5 189q0 127 -84 202.5t-219 75.5h-373z" />
    <glyph glyph-name="Q" unicode="Q" horiz-adv-x="1634" 
d="M1542 774q0 -189 -67 -349.5t-187 -270.5l96 -115q28 -31 -4 -57l-100 -84q-33 -26 -57 4l-111 133q-145 -68 -305 -68q-152 0 -284.5 58t-228 160t-150 248.5t-54.5 316.5q0 226 97 405.5t265.5 278t376.5 98.5q152 0 284 -55t226.5 -153.5t148.5 -240.5t54 -309z
M823 184q65 0 144 21l-84 102q-29 32 4 58l100 84q32 26 57 -5l105 -127q151 157 151 435q0 266 -136.5 415.5t-352.5 149.5q-102 0 -188.5 -36t-151 -104t-101 -173.5t-36.5 -237.5q0 -268 137 -425t352 -157z" />
    <glyph glyph-name="R" unicode="R" horiz-adv-x="1390" 
d="M641 623h-244l4 -582q0 -41 -41 -41h-178q-41 0 -41 41l9 1417q0 41 40 41h592q229 0 367.5 -120.5t138.5 -309.5q0 -160 -101.5 -278.5t-277.5 -153.5l418 -588q14 -20 6.5 -34.5t-33.5 -14.5h-213q-33 0 -51 27zM397 836h357q293 0 293 215q0 109 -78 172t-215 63h-361
z" />
    <glyph glyph-name="S" unicode="S" horiz-adv-x="1384" 
d="M698 1532q211 0 355 -104.5t204 -274.5q8 -22 -1.5 -34.5t-32.5 -12.5h-152q-32 0 -49 29q-52 86 -139.5 133t-204.5 47q-135 0 -203.5 -49.5t-68.5 -130.5t75.5 -134t270.5 -112l65 -21q254 -78 364.5 -196.5t110.5 -276.5q0 -202 -152.5 -315t-408.5 -113
q-113 0 -211.5 25.5t-167.5 66.5t-122.5 96.5t-85 112t-46.5 115.5q-9 45 37 45h162q31 0 47 -31q110 -211 399 -211q299 0 299 176q0 86 -80 152t-270 129l-74 27q-227 74 -341 173.5t-121 254.5q-4 131 69.5 231t197 151.5t275.5 51.5z" />
    <glyph glyph-name="T" unicode="T" horiz-adv-x="1247" 
d="M1214 1458v-137q0 -41 -40 -41h-429l9 -1239q0 -41 -41 -41h-176q-41 0 -41 41l8 1239h-428q-41 0 -41 41v137q0 41 41 41h1098q40 0 40 -41z" />
    <glyph glyph-name="U" unicode="U" horiz-adv-x="1542" 
d="M1397 1458l4 -811q1 -165 -46 -295t-132 -214t-200 -127.5t-253 -43.5q-283 0 -456.5 177.5t-172.5 502.5l4 811q0 41 41 41h160q41 0 41 -41l4 -784q3 -249 102.5 -369.5t282.5 -120.5q372 0 375 490l4 784q0 41 41 41h160q41 0 41 -41z" />
    <glyph glyph-name="V" unicode="V" horiz-adv-x="1398" 
d="M1155 1499h166q22 0 31 -12.5t2 -34.5l-502 -1419q-11 -33 -47 -33h-213q-36 0 -47 33l-500 1419q-7 22 2 34.5t31 12.5h166q36 0 47 -33l401 -1134h13l403 1134q11 33 47 33z" />
    <glyph glyph-name="W" unicode="W" horiz-adv-x="2041" 
d="M1800 1499h166q22 0 31.5 -12.5t3.5 -32.5l-385 -1419q-9 -35 -47 -35h-205q-36 0 -45 35l-287 1112h-22l-285 -1112q-9 -35 -45 -35h-205q-38 0 -47 35l-387 1419q-6 20 3.5 32.5t31.5 12.5h166q35 0 47 -35l284 -1061h17l280 1061q12 35 48 35h206q36 0 45 -35
l279 -1061h18l287 1061q9 35 47 35z" />
    <glyph glyph-name="X" unicode="X" horiz-adv-x="1511" 
d="M1362 0h-205q-34 0 -49 27l-358 555l-359 -555q-15 -27 -49 -27h-192q-25 0 -33 14.5t6 34.5l498 731l-433 670q-14 22 -6.5 35.5t33.5 13.5h172q34 0 51 -26l346 -521l344 521q17 26 52 26h161q25 0 33 -14.5t-6 -34.5l-457 -688l478 -713q14 -20 6 -34.5t-33 -14.5z
" />
    <glyph glyph-name="Y" unicode="Y" horiz-adv-x="1255" 
d="M754 604l6 -563q0 -41 -41 -41h-176q-41 0 -41 41l4 565l-459 844q-12 22 -4 35.5t33 13.5h178q32 0 49 -29l324 -612h16l320 612q17 29 49 29h168q25 0 32.5 -13.5t-4.5 -35.5z" />
    <glyph glyph-name="Z" unicode="Z" horiz-adv-x="1376" 
d="M418 221h778q41 0 41 -41v-139q0 -41 -41 -41h-1053q-41 0 -41 41v115q0 33 27 67l770 1039v18h-711q-41 0 -41 41v137q0 41 41 41h988q41 0 41 -41v-108q0 -39 -25 -68l-774 -1046v-15z" />
    <glyph glyph-name="bracketleft" unicode="[" horiz-adv-x="897" 
d="M412 1305l10 -1565h291q41 0 41 -41v-109q0 -41 -41 -41h-475q-41 0 -41 41l8 1864q0 41 41 41h467q41 0 41 -41v-108q0 -41 -41 -41h-301z" />
    <glyph glyph-name="backslash" unicode="\" horiz-adv-x="892" 
d="M100 1497h172q36 0 47 -33l506 -1417q7 -22 -1.5 -34.5t-30.5 -12.5h-175q-36 0 -47 33l-503 1417q-7 22 1.5 34.5t30.5 12.5z" />
    <glyph glyph-name="bracketright" unicode="]" horiz-adv-x="897" 
d="M184 1495h478q40 0 40 -41l-10 -1864q0 -41 -41 -41h-467q-41 0 -41 41v109q0 41 41 41h301l-8 1565h-293q-41 0 -41 41v108q0 41 41 41z" />
    <glyph glyph-name="asciicircum" unicode="^" horiz-adv-x="1511" 
d="M1313 449h-125q-33 0 -47 28l-381 750l-389 -750q-14 -28 -47 -28h-125q-25 0 -33 13.5t4 35.5l475 895q17 28 49 28h135q34 0 48 -28l466 -895q11 -22 3 -35.5t-33 -13.5z" />
    <glyph glyph-name="underscore" unicode="_" horiz-adv-x="1323" 
d="M1247 -166v-88q0 -41 -41 -41h-1087q-41 0 -41 41v88q0 41 41 41h1087q41 0 41 -41z" />
    <glyph glyph-name="grave" unicode="`" horiz-adv-x="892" 
d="M303 1563h141q33 0 50 -29l135 -250q12 -22 4 -35.5t-33 -13.5h-68q-32 0 -49 25l-202 253q-17 20 -10.5 35t32.5 15z" />
    <glyph glyph-name="a" unicode="a" horiz-adv-x="1179" 
d="M602 1133q197 0 313.5 -104t116.5 -288l8 -700q0 -41 -41 -41h-161q-41 0 -41 41l2 125h-17q-57 -87 -153.5 -138t-216.5 -51q-150 0 -241 82.5t-91 229.5q0 171 138.5 259t445.5 124q135 15 135 108q0 65 -58.5 106.5t-154.5 41.5q-162 0 -213 -123q-14 -33 -47 -33
h-146q-22 0 -32.5 10t-6.5 27q39 149 158 236.5t303 87.5zM797 516l-11 6q-59 -20 -143 -33q-167 -27 -247.5 -68t-80.5 -118q0 -55 39.5 -86t114.5 -31q73 0 137.5 26t106.5 67t65 89t21 93z" />
    <glyph glyph-name="b" unicode="b" horiz-adv-x="1263" 
d="M664 1133q233 0 377.5 -164.5t144.5 -431.5q0 -249 -126.5 -409.5t-326.5 -160.5q-101 0 -189.5 44.5t-144.5 133.5h-14v-104q0 -41 -41 -41h-164q-41 0 -41 41l8 1458q0 41 41 41h148q41 0 41 -41l4 -471h12q97 105 271 105zM670 180q132 0 203 95t71 266q0 183 -76 282
t-202 99q-131 0 -215 -100t-80 -277q0 -178 83.5 -271.5t215.5 -93.5z" />
    <glyph glyph-name="c" unicode="c" horiz-adv-x="1114" 
d="M596 1135q94 0 176.5 -29t141 -77.5t97.5 -108.5t56 -125q9 -45 -37 -45h-147q-32 0 -47 30q-40 71 -96.5 106.5t-141.5 35.5q-281 0 -281 -379q0 -191 76 -276t217 -85q85 0 134.5 31.5t82.5 89.5q15 31 47 31h148q23 0 32.5 -12.5t2.5 -32.5q-22 -62 -61.5 -117.5
t-96.5 -102.5t-137.5 -74.5t-173.5 -27.5q-233 0 -371.5 155.5t-138.5 414.5q0 275 143 436.5t375 161.5z" />
    <glyph glyph-name="d" unicode="d" horiz-adv-x="1261" 
d="M1081 0h-172q-41 0 -41 41v104h-14q-51 -89 -137 -133.5t-189 -44.5q-131 0 -234 73.5t-159.5 203.5t-56.5 293q0 267 144.5 431.5t377.5 164.5q161 0 266 -105h11l2 471q0 41 41 41h153q41 0 41 -41l8 -1458q0 -41 -41 -41zM596 182q129 0 212.5 101t80.5 278
q3 177 -80.5 269t-214.5 92q-134 0 -205.5 -96.5t-71.5 -268.5q0 -180 77 -277.5t202 -97.5z" />
    <glyph glyph-name="e" unicode="e" horiz-adv-x="1175" 
d="M618 1135q124 0 220 -46.5t154 -128.5t85.5 -190t20.5 -235q-3 -39 -43 -39h-738q7 -160 90 -238t214 -78q73 0 124.5 27.5t90.5 89.5q17 29 49 29h145q23 0 32.5 -12.5t0.5 -34.5q-62 -151 -184 -231.5t-279 -80.5q-229 0 -375.5 158.5t-146.5 417.5q0 262 149 427
t391 165zM598 922q-211 0 -268 -238h522q-2 100 -68.5 169t-185.5 69z" />
    <glyph glyph-name="f" unicode="f" horiz-adv-x="821" 
d="M774 1501v-133q0 -41 -41 -41q-46 -1 -71.5 -2.5t-59 -6.5t-51 -13.5t-37 -24t-29 -38.5t-15 -55.5t-5.5 -76.5v-10h258q41 0 41 -41v-119q0 -41 -41 -41h-256l6 -858q0 -41 -41 -41h-170q-41 0 -41 41l6 858h-131q-41 0 -41 41v119q0 41 41 41h133q8 465 506 442
q39 0 39 -41z" />
    <glyph glyph-name="g" unicode="g" horiz-adv-x="1265" 
d="M1114 1059l12 -893q3 -163 -35 -289t-109.5 -203.5t-166.5 -117t-211 -39.5q-154 0 -270 69t-180 201q-10 22 -1.5 35.5t31.5 13.5h156q28 0 49 -24q69 -82 211 -82q62 0 110 17.5t85.5 57t56 110t16.5 169.5v27h-12q-52 -60 -112 -85.5t-148 -25.5q-231 0 -374.5 156
t-143.5 411q0 242 126.5 404t323.5 162q103 0 190 -48t140 -137h16l3 111q3 41 43 41h153q41 0 41 -41zM594 213q131 0 214.5 82t80.5 240q3 178 -80.5 282.5t-212.5 104.5q-124 0 -201.5 -100.5t-77.5 -274.5q0 -162 71 -248t206 -86z" />
    <glyph glyph-name="h" unicode="h" horiz-adv-x="1214" 
d="M387 950h19q110 170 311 170q162 0 257.5 -108.5t96.5 -302.5l4 -668q0 -41 -41 -41h-172q-41 0 -41 41l6 606q1 122 -49 182t-143 60q-119 0 -188.5 -92.5t-59.5 -272.5l4 -483q0 -41 -41 -41h-170q-41 0 -41 41l8 1458q0 41 41 41h154q41 0 41 -41z" />
    <glyph glyph-name="i" unicode="i" horiz-adv-x="571" 
d="M406 1499v-153q0 -41 -41 -41h-154q-41 0 -41 41v153q0 41 41 41h154q41 0 41 -41zM403 1059l9 -1018q0 -41 -41 -41h-170q-41 0 -41 41l8 1018q0 41 41 41h153q41 0 41 -41z" />
    <glyph glyph-name="j" unicode="j" horiz-adv-x="620" 
d="M434 1499v-153q0 -41 -41 -41h-153q-41 0 -41 41v153q0 41 41 41h153q41 0 41 -41zM434 1059l8 -1059q1 -221 -110.5 -331.5t-343.5 -119.5q-43 0 -43 41v131q0 40 41 43q110 9 156 58.5t48 157.5l9 1079q0 41 41 41h153q41 0 41 -41z" />
    <glyph glyph-name="k" unicode="k" horiz-adv-x="1198" 
d="M492 498l-103 -97l2 -360q0 -41 -41 -41h-170q-41 0 -41 41l8 1458q0 41 41 41h154q41 0 41 -41l4 -840l434 420q21 21 49 21h177q28 0 34 -15.5t-14 -35.5l-428 -410l446 -590q15 -20 7.5 -34.5t-33.5 -14.5h-185q-31 0 -49 27z" />
    <glyph glyph-name="l" unicode="l" horiz-adv-x="608" 
d="M422 1499l8 -1458q0 -41 -41 -41h-170q-41 0 -41 41l8 1458q0 41 41 41h154q41 0 41 -41z" />
    <glyph glyph-name="m" unicode="m" horiz-adv-x="1830" 
d="M1343 1133q163 0 255.5 -111t93.5 -313l6 -668q0 -41 -41 -41h-172q-41 0 -41 41l4 606q3 256 -174 256q-111 0 -177.5 -96.5t-56.5 -282.5l4 -483q0 -41 -40 -41h-173q-40 0 -40 41l4 606q3 256 -174 256q-49 0 -91.5 -20.5t-77.5 -63t-52.5 -118.5t-12.5 -177l4 -483
q0 -41 -41 -41h-172q-41 0 -41 41l10 1018q0 41 41 41h154q41 0 41 -41l2 -109h10q130 183 310 183q209 0 288 -201h15q72 102 152.5 151.5t182.5 49.5z" />
    <glyph glyph-name="n" unicode="n" 
d="M721 1133q164 0 264 -113t100 -311v-668q0 -41 -41 -41h-172q-41 0 -41 41v606q0 125 -52 190.5t-144 65.5q-119 0 -188.5 -97t-59.5 -282l4 -483q0 -41 -41 -41h-170q-41 0 -41 41l8 1018q0 41 41 41h154q41 0 41 -41l2 -109h16q117 183 320 183z" />
    <glyph glyph-name="o" unicode="o" horiz-adv-x="1226" 
d="M623 1133q150 0 269.5 -71t188 -201.5t68.5 -297.5q0 -169 -71.5 -306t-196 -213.5t-277.5 -76.5q-227 0 -376.5 163t-149.5 415q0 128 41.5 237.5t114 186.5t173.5 120.5t216 43.5zM596 922q-124 0 -201.5 -96t-77.5 -259q0 -173 90 -279t222 -106q123 0 200.5 97
t77.5 258q0 176 -88.5 280.5t-222.5 104.5z" />
    <glyph glyph-name="p" unicode="p" horiz-adv-x="1263" 
d="M733 1133q132 0 235.5 -74t160.5 -204t57 -294q0 -262 -141 -428t-359 -166q-93 0 -159.5 24t-127.5 77h-10l2 -478q0 -41 -41 -41h-170q-41 0 -41 41l8 1469q0 41 41 41h154q41 0 41 -41l2 -109l16 2q55 89 143 135t189 46zM668 180q135 0 205.5 95t70.5 268
q0 179 -76.5 279t-201.5 100q-127 0 -211 -102t-84 -277q-4 -178 79.5 -270.5t217.5 -92.5z" />
    <glyph glyph-name="q" unicode="q" horiz-adv-x="1261" 
d="M1081 -451h-172q-41 0 -41 41l6 478h-14q-107 -101 -268 -101q-232 0 -373 164t-141 428q0 253 125.5 413.5t324.5 160.5q103 0 190 -45.5t142 -137.5h17l2 109q0 41 41 41h153q41 0 41 -41l8 -1469q0 -41 -41 -41zM594 180q130 0 214 89t81 255q3 188 -80 293t-213 105
q-126 0 -202.5 -98.5t-76.5 -280.5q0 -172 71.5 -267.5t205.5 -95.5z" />
    <glyph glyph-name="r" unicode="r" horiz-adv-x="786" 
d="M739 1090v-172q0 -41 -41 -41q-77 -2 -131 -17.5t-98.5 -52t-65 -106t-16.5 -171.5l4 -489q0 -41 -41 -41h-170q-41 0 -41 41l8 1018q0 41 41 41h154q41 0 41 -41l2 -105h16q56 74 133.5 120.5t161.5 55.5q43 3 43 -40z" />
    <glyph glyph-name="s" unicode="s" horiz-adv-x="1105" 
d="M553 1133q94 0 174.5 -27t134.5 -71.5t89 -95.5t50 -105q6 -20 -4 -31.5t-32 -11.5h-150q-31 0 -51 26q-79 105 -223 105q-81 0 -130 -34.5t-49 -86.5q0 -42 48.5 -69.5t171.5 -63.5l86 -25q192 -54 275 -132.5t83 -191.5q0 -159 -122.5 -255.5t-323.5 -96.5
q-102 0 -186.5 26t-143 71.5t-97.5 101t-61 121.5q-6 20 3.5 32.5t31.5 12.5h168q30 0 49 -29q40 -67 100 -95t148 -28q188 0 188 117q0 48 -50 84t-173 70l-82 22q-171 47 -260.5 119t-89.5 194q0 150 122.5 248.5t305.5 98.5z" />
    <glyph glyph-name="t" unicode="t" horiz-adv-x="751" 
d="M705 1059v-119q0 -41 -41 -41h-177l5 -858q0 -41 -41 -41h-170q-41 0 -41 41l4 858h-148q-41 0 -41 41v119q0 41 41 41h150l2 377q0 41 41 41h153q41 0 41 -41l2 -377h179q41 0 41 -41z" />
    <glyph glyph-name="u" unicode="u" horiz-adv-x="1210" 
d="M1061 1059l10 -1018q0 -41 -41 -41h-172q-42 0 -39 41l2 109h-16q-111 -183 -311 -183q-164 0 -260 116.5t-95 332.5l4 643q0 41 41 41h154q41 0 41 -41l4 -584q1 -144 49.5 -211t142.5 -67q116 0 184.5 95.5t61.5 282.5l6 484q0 41 41 41h152q41 0 41 -41z" />
    <glyph glyph-name="v" unicode="v" horiz-adv-x="1124" 
d="M1069 1053l-340 -1020q-9 -33 -45 -33h-244q-36 0 -45 33l-340 1020q-8 22 1 34.5t32 12.5h150q36 0 45 -33l268 -807h24l267 807q9 33 45 33h149q23 0 32 -12.5t1 -34.5z" />
    <glyph glyph-name="w" unicode="w" horiz-adv-x="1611" 
d="M1380 1100h144q22 0 31.5 -12.5t3.5 -32.5l-269 -1020q-12 -35 -47 -35h-229q-36 0 -45 35l-158 608h-14l-154 -608q-9 -35 -45 -35h-233q-37 0 -46 35l-268 1020q-12 45 35 45h150q36 0 45 -35l194 -807h27l198 807q9 35 45 35h129q37 0 46 -35l194 -807h25l196 807
q9 35 45 35z" />
    <glyph glyph-name="x" unicode="x" horiz-adv-x="1173" 
d="M739 539l334 -490q14 -20 6.5 -34.5t-32.5 -14.5h-183q-33 0 -51 27l-238 360l-239 -360q-18 -27 -51 -27h-176q-26 0 -33.5 14.5t6.5 34.5l371 524l-318 478q-14 20 -6 34.5t33 14.5h166q31 0 49 -27l239 -352l244 352q18 27 49 27h158q26 0 34 -14.5t-7 -34.5z" />
    <glyph glyph-name="y" unicode="y" horiz-adv-x="1136" 
d="M901 1100h148q48 0 32 -47l-503 -1471q-11 -33 -48 -33h-174q-22 0 -30.5 13t-1.5 35l125 342l-394 1114q-7 22 2 34.5t31 12.5h150q36 0 45 -33l268 -797h16l287 797q11 33 47 33z" />
    <glyph glyph-name="z" unicode="z" horiz-adv-x="999" 
d="M909 1059v-127v-2q0 -10 -22 -41l-525 -676v-12h519q41 0 41 -41v-119q0 -41 -41 -41h-762q-41 0 -41 41v127q10 27 20 41l543 676v14h-504q-41 0 -41 41v119q0 41 41 41h731q41 0 41 -41z" />
    <glyph glyph-name="braceleft" unicode="{" horiz-adv-x="954" 
d="M811 1495v-119q0 -41 -41 -41h-4q-107 0 -156 -51.5t-49 -177.5v-295q0 -121 -31.5 -183t-91.5 -93v-17q57 -26 90 -99.5t33 -193.5v-280q0 -126 49 -177t156 -51h4q41 0 41 -41v-120q0 -41 -41 -41h-35q-206 0 -301.5 97t-95.5 322v248q0 119 -20 174.5t-82 65.5
q-39 6 -39 41v127q0 35 39 41q62 10 82 65t20 174v256q0 223 95 316.5t302 93.5h35q41 0 41 -41z" />
    <glyph glyph-name="bar" unicode="|" horiz-adv-x="821" 
d="M514 1546l10 -2007q0 -41 -41 -41h-143q-41 0 -41 41l8 2007q0 41 41 41h125q41 0 41 -41z" />
    <glyph glyph-name="braceright" unicode="}" horiz-adv-x="954" 
d="M143 -444v120q0 41 41 41h4q107 0 156 51t49 177v297q0 120 31.5 181.5t91.5 92.5v16q-57 26 -90 100t-33 195v279q0 126 -49 177.5t-156 51.5h-4q-41 0 -41 41v119q0 41 41 41h35q206 0 301.5 -97.5t95.5 -322.5v-248q0 -118 20.5 -172.5t82.5 -64.5q39 -6 39 -41v-129
q0 -35 -39 -41q-62 -10 -82.5 -65.5t-20.5 -174.5v-254q0 -223 -95 -317t-302 -94h-35q-41 0 -41 41z" />
    <glyph glyph-name="asciitilde" unicode="~" horiz-adv-x="1366" 
d="M516 791q56 0 105 -18t82 -44.5t60.5 -52.5t53.5 -44t49 -18q59 0 70 91q3 40 41 40h123q42 0 39 -40q-4 -56 -20.5 -104.5t-47 -91t-83.5 -67t-122 -24.5q-51 0 -94.5 18t-74 43.5t-57.5 51t-57.5 43.5t-62.5 18q-67 0 -82 -90q-6 -39 -41 -39h-123q-41 0 -41 35
q18 293 283 293z" />
    <glyph glyph-name="exclamdown" unicode="&#xa1;" horiz-adv-x="692" 
d="M205 903v178q0 41 41 41h200q41 0 41 -41v-178q0 -41 -41 -41h-200q-41 0 -41 41zM217 -348l-8 956q0 41 41 41h172q41 0 41 -41l-10 -956q0 -41 -41 -41h-154q-41 0 -41 41z" />
    <glyph glyph-name="cent" unicode="&#xa2;" horiz-adv-x="1114" 
d="M610 367q85 0 135 31.5t82 90.5q15 31 47 31h148q23 0 32.5 -12.5t2.5 -32.5q-40 -115 -136 -202.5t-239 -112.5l6 -246q3 -41 -39 -41h-112q-42 0 -39 41l6 244q-196 28 -311 179.5t-115 383.5q0 246 115.5 402.5t310.5 187.5l-6 248q-3 40 39 40h112q42 0 39 -40
l-6 -246q151 -24 253 -119t132 -215q9 -45 -37 -45h-147q-31 0 -47 31q-40 72 -96.5 107.5t-141.5 35.5q-281 0 -281 -379q0 -192 76 -277t217 -85z" />
    <glyph glyph-name="sterling" unicode="&#xa3;" horiz-adv-x="1417" 
d="M473 221h764q41 0 41 -41v-139q0 -41 -41 -41h-1055q-41 0 -41 41v127q0 28 27 49q39 27 66 52.5t45 55t28.5 54t15.5 64t6 70.5t1 85h-60q-41 0 -41 41v131q0 41 41 41h60v248q0 206 133 341.5t350 135.5q86 0 157.5 -22.5t121.5 -60t88 -89.5t59.5 -107t32.5 -116
q6 -43 -39 -43h-143q-37 0 -46 37q-56 190 -241 190q-111 0 -176.5 -72.5t-65.5 -216.5v-225h406q41 0 41 -41v-131q0 -41 -41 -41h-406v-12q0 -235 -88 -348v-17z" />
    <glyph glyph-name="currency" unicode="&#xa4;" horiz-adv-x="1474" 
d="M1098 541q0 -99 -47 -179l88 -88q29 -28 0 -57l-76 -78q-28 -31 -57 -2l-91 90q-80 -47 -178 -47q-99 0 -176 47l-88 -90q-29 -29 -57 0l-78 80q-28 29 0 57l88 88q-49 81 -49 179q0 101 47 178l-88 88q-28 29 0 57l80 76q28 28 57 0l86 -86q80 47 178 47q97 0 181 -49
l88 88q28 28 57 0l76 -76q29 -28 0 -57l-86 -90q45 -79 45 -176zM545 541q0 -78 56.5 -134.5t135.5 -56.5q78 0 134.5 56.5t56.5 134.5q0 79 -56.5 135.5t-134.5 56.5q-79 0 -135.5 -56.5t-56.5 -135.5z" />
    <glyph glyph-name="yen" unicode="&#xa5;" horiz-adv-x="1255" 
d="M834 752h163q41 0 41 -41v-84q0 -41 -41 -41h-243l2 -129h241q41 0 41 -41v-84q0 -41 -41 -41h-239l2 -250q0 -41 -41 -41h-176q-41 0 -41 41l2 250h-205q-41 0 -41 41v84q0 41 41 41h207v129h-207q-41 0 -41 41v84q0 41 41 41h127l-379 698q-12 22 -4 35.5t33 13.5h178
q32 0 49 -29l324 -612h16l320 612q17 29 49 29h168q25 0 32.5 -13.5t-4.5 -35.5z" />
    <glyph glyph-name="brokenbar" unicode="&#xa6;" horiz-adv-x="821" 
d="M514 1546l10 -614q0 -41 -41 -41h-143q-41 0 -41 41l8 614q0 41 41 41h125q41 0 41 -41zM514 154l10 -615q0 -41 -41 -41h-143q-41 0 -41 41l8 615q0 41 41 41h125q41 0 41 -41z" />
    <glyph glyph-name="section" unicode="&#xa7;" horiz-adv-x="1210" 
d="M934 496q73 -46 104 -102.5t31 -131.5q0 -158 -120 -254t-316 -96q-100 0 -182.5 26t-140 72t-96 101t-60.5 120q-6 20 3 32.5t31 12.5h160q32 0 49 -28q42 -66 101.5 -94.5t144.5 -28.5q180 0 180 111q0 53 -49 85.5t-192 77.5l-37 13q-71 24 -120.5 44t-98 48.5
t-77 59.5t-46 73t-17.5 94q0 75 40 141t110 113q-150 85 -150 232q0 149 121 247.5t303 98.5q89 0 166 -27t129.5 -71t87.5 -95.5t49 -105.5q6 -20 -4 -31.5t-32 -11.5h-148q-31 0 -51 26q-77 103 -211 103q-79 0 -125.5 -34t-46.5 -83q0 -47 45.5 -72t183.5 -67l39 -13
q212 -63 294.5 -138t82.5 -193q0 -158 -135 -254zM424 745q0 -45 47 -71.5t182 -67.5l29 -8q70 16 105.5 45.5t35.5 79.5t-47 82.5t-182 77.5q-82 -15 -126 -51t-44 -87z" />
    <glyph glyph-name="dieresis" unicode="&#xa8;" horiz-adv-x="1019" 
d="M451 1499v-153q0 -41 -41 -41h-127q-41 0 -41 41v153q0 41 41 41h127q41 0 41 -41zM778 1499v-153q0 -41 -41 -41h-127q-41 0 -41 41v153q0 41 41 41h127q41 0 41 -41z" />
    <glyph glyph-name="copyright" unicode="&#xa9;" horiz-adv-x="1779" 
d="M889 1497q155 0 292.5 -54t238.5 -150t159.5 -236.5t58.5 -306.5q0 -133 -37.5 -250.5t-106.5 -208t-161.5 -156t-206 -99.5t-237.5 -34q-154 0 -290.5 54t-238 150t-160.5 237.5t-59 306.5t59 306t160.5 237t238 150t290.5 54zM889 1339q-163 0 -297 -72.5t-213.5 -208
t-79.5 -308.5q0 -130 46.5 -241t126 -187t188 -119t229.5 -43t229.5 43t188.5 119t127 187t47 241q0 173 -80 308.5t-214.5 208t-297.5 72.5zM903 1169q132 0 225 -70.5t121 -170.5q6 -21 -4.5 -33t-32.5 -12h-92q-32 0 -47 30q-55 99 -170 99q-207 0 -207 -273
q0 -256 217 -256q107 0 160 84q16 29 47 29h84q23 0 33 -12.5t2 -32.5q-38 -95 -127 -161t-217 -66q-170 0 -273.5 112.5t-103.5 298.5q0 199 106.5 316.5t278.5 117.5z" />
    <glyph glyph-name="guillemetleft" unicode="&#xab;" horiz-adv-x="1304" 
d="M209 481v181q0 33 27 51l333 217q20 14 34.5 6t14.5 -33v-131q0 -34 -26 -51l-230 -150l230 -149q26 -14 26 -49v-131q0 -25 -13.5 -32.5t-35.5 5.5l-333 217q-27 15 -27 49zM1094 903v-131q0 -33 -27 -51l-229 -150l229 -149q27 -15 27 -49v-131q0 -25 -14 -32.5
t-36 5.5l-333 217q-27 15 -27 49v181q0 33 27 51l333 217q20 14 35 6t15 -33z" />
    <glyph glyph-name="registered" unicode="&#xae;" horiz-adv-x="1171" 
d="M586 1573q161 0 276 -115t115 -276q0 -160 -115 -275.5t-276 -115.5t-275 115.5t-114 275.5q0 161 114 276t275 115zM586 909q114 0 195 80.5t81 194.5t-81 194t-195 80t-194.5 -80t-80.5 -194t80.5 -194.5t194.5 -80.5zM733 1239q0 -68 -65 -92l45 -72q14 -22 6.5 -35.5
t-33.5 -13.5h-16q-34 0 -49 27l-52 84h-20v-70q0 -41 -41 -41h-14q-41 0 -41 41v229q0 41 41 41h116q59 0 91 -27.5t32 -70.5zM549 1217h59q17 0 24 3.5t7 14.5q0 20 -31 20h-59v-38z" />
    <glyph glyph-name="macron" unicode="&#xaf;" horiz-adv-x="1021" 
d="M772 1419v-98q0 -41 -41 -41h-440q-41 0 -41 41v98q0 41 41 41h440q41 0 41 -41z" />
    <glyph glyph-name="degree" unicode="&#xb0;" horiz-adv-x="964" 
d="M481 1573q132 0 226 -93t94 -225t-94 -224.5t-226 -92.5t-224.5 92.5t-92.5 224.5t92.5 225t224.5 93zM481 1395q-58 0 -98.5 -40.5t-40.5 -99.5q0 -57 40.5 -98t98.5 -41q57 0 98.5 41t41.5 98q0 58 -41.5 99t-98.5 41z" />
    <glyph glyph-name="twosuperior" unicode="&#xb2;" horiz-adv-x="694" 
d="M385 1509q101 0 155 -52.5t54 -121.5q0 -99 -115 -190l-67 -55v-11h149q41 0 41 -41v-41q0 -41 -41 -41h-354q-41 0 -41 41v39q0 27 16 39l189 156q38 30 53.5 48.5t15.5 39.5q0 24 -17 38.5t-48 14.5q-50 0 -72 -31q-25 -28 -49 -28h-68q-22 0 -33 6t-8 18
q14 67 75.5 119.5t164.5 52.5z" />
    <glyph glyph-name="threesuperior" unicode="&#xb3;" horiz-adv-x="657" 
d="M453 1235q112 -33 112 -127q0 -69 -61 -115.5t-170 -46.5q-102 0 -162.5 41.5t-75.5 99.5q-6 20 5 31.5t32 11.5h74q26 0 49 -30q20 -29 78 -29q80 0 80 45q0 55 -142 55q-36 0 -36 41v27q0 41 36 41q125 0 125 53q0 22 -21.5 35.5t-53.5 13.5q-42 0 -60 -18
q-2 -2 -5 -5.5t-5 -5t-5 -4t-4.5 -4t-4.5 -3.5t-5.5 -3t-5.5 -2t-6.5 -1.5t-7.5 -0.5h-68q-22 0 -32.5 12.5t-3.5 32.5q22 54 78 91.5t151 37.5q104 0 155.5 -45t51.5 -106q0 -85 -92 -123z" />
    <glyph glyph-name="acute" unicode="&#xb4;" horiz-adv-x="892" 
d="M614 1513l-202 -253q-17 -25 -50 -25h-67q-25 0 -33 13.5t4 35.5l133 250q17 29 50 29h143q26 0 32.5 -15t-10.5 -35z" />
    <glyph glyph-name="micro" unicode="&#xb5;" horiz-adv-x="1214" 
d="M1034 0h-172q-42 0 -39 41l4 109h-18q-111 -183 -311 -183q-89 0 -154 33l-14 -8q55 -197 61 -402q0 -41 -41 -41h-170q-41 0 -41 41l4 795v31l4 643q0 41 41 41h154q41 0 41 -41l4 -584q3 -278 193 -278q117 0 185.5 95.5t61.5 282.5l4 484q0 41 41 41h154q41 0 41 -41
l8 -1018q0 -41 -41 -41z" />
    <glyph glyph-name="paragraph" unicode="&#xb6;" horiz-adv-x="1513" 
d="M498 1262h313q41 0 41 -41v-1385q0 -41 -41 -41h-141q-41 0 -41 41v637h-131q-191 0 -305.5 110.5t-114.5 286.5q0 174 114.5 283t305.5 109zM1141 1262h153q41 0 41 -41v-1385q0 -41 -41 -41h-153q-41 0 -41 41v1385q0 41 41 41z" />
    <glyph glyph-name="periodcentered" unicode="&#xb7;" horiz-adv-x="772" 
d="M520 664v-164q0 -41 -41 -41h-188q-41 0 -41 41v164q0 41 41 41h188q41 0 41 -41z" />
    <glyph glyph-name="cedilla" unicode="&#xb8;" horiz-adv-x="882" 
d="M522 -16l-26 -84q60 -13 99.5 -57t39.5 -115q0 -83 -58 -138t-161 -55q-63 0 -125 29q-32 17 -23 53l15 45q11 40 53 25q49 -19 80 -19q27 0 48 16.5t21 36.5q0 29 -25 48t-83 18h-8q-48 0 -35 47l49 162q8 35 45 35h59q48 0 35 -47z" />
    <glyph glyph-name="onesuperior" unicode="&#xb9;" horiz-adv-x="606" 
d="M461 1458l6 -461q0 -41 -41 -41h-86q-41 0 -41 41l2 375h-8l-78 -72q-31 -28 -59 3l-37 40q-30 33 2 58l88 80q24 18 51 18h160q41 0 41 -41z" />
    <glyph glyph-name="guillemetright" unicode="&#xbb;" horiz-adv-x="1304" 
d="M209 772v131q0 25 13.5 32.5t35.5 -5.5l334 -217q26 -14 26 -49v-181q0 -34 -26 -51l-334 -217q-20 -14 -34.5 -6t-14.5 33v131q0 33 27 51l229 149l-229 150q-27 15 -27 49zM733 930l334 -217q27 -15 27 -49v-181q0 -33 -27 -51l-334 -217q-20 -14 -34.5 -6t-14.5 33
v131q0 33 27 51l229 149l-229 150q-27 15 -27 49v131q0 25 14.5 33t34.5 -6z" />
    <glyph glyph-name="questiondown" unicode="&#xbf;" horiz-adv-x="1226" 
d="M541 918v163q0 41 41 41h188q41 0 41 -41v-163q0 -41 -41 -41h-188q-41 0 -41 41zM584 -436q-116 0 -209.5 35.5t-152 96.5t-89.5 139t-31 167q0 160 98.5 287.5t301.5 230.5v111q0 41 41 41h174q41 0 41 -41v-174q0 -33 -33 -47q-213 -100 -298 -192.5t-85 -201.5
t68 -169t188 -60q98 0 173 45.5t106 134.5q12 35 47 35h155q44 0 41 -29q-15 -76 -55 -146.5t-104 -130.5t-162 -96t-215 -36z" />
    <glyph glyph-name="Agrave" unicode="&#xc0;" horiz-adv-x="1419" 
d="M791 1634h-68q-32 0 -49 25l-203 254q-17 20 -10 34.5t33 14.5h143q32 0 49 -29l133 -250q12 -22 4.5 -35.5t-32.5 -13.5zM987 436h-551l-141 -403q-11 -33 -47 -33h-168q-23 0 -32.5 12.5t-2.5 34.5l522 1419q11 33 47 33h195q36 0 47 -33l522 -1419q7 -22 -2.5 -34.5
t-32.5 -12.5h-169q-37 0 -48 33zM911 655l-192 549h-12l-193 -549h397z" />
    <glyph glyph-name="Aacute" unicode="&#xc1;" horiz-adv-x="1419" 
d="M973 1913l-203 -254q-17 -25 -49 -25h-68q-25 0 -32.5 13.5t4.5 35.5l133 250q17 29 49 29h143q26 0 33 -14.5t-10 -34.5zM987 436h-551l-141 -403q-11 -33 -47 -33h-168q-23 0 -32.5 12.5t-2.5 34.5l522 1419q11 33 47 33h195q36 0 47 -33l522 -1419q7 -22 -2.5 -34.5
t-32.5 -12.5h-169q-37 0 -48 33zM911 655l-192 549h-12l-193 -549h397z" />
    <glyph glyph-name="Acircumflex" unicode="&#xc2;" horiz-adv-x="1419" 
d="M696 1823l-110 -162q-18 -27 -49 -27h-119q-26 0 -33 15t10 37l213 253q20 23 51 23h103q31 0 51 -23l215 -253q17 -22 10.5 -37t-32.5 -15h-119q-30 0 -49 25l-121 164h-21zM987 436h-551l-141 -403q-11 -33 -47 -33h-168q-23 0 -32.5 12.5t-2.5 34.5l522 1419
q11 33 47 33h195q36 0 47 -33l522 -1419q7 -22 -2.5 -34.5t-32.5 -12.5h-169q-37 0 -48 33zM911 655l-192 549h-12l-193 -549h397z" />
    <glyph glyph-name="Atilde" unicode="&#xc3;" horiz-adv-x="1419" 
d="M610 1767q-46 0 -57 -63q-6 -39 -41 -39h-61q-42 0 -39 41q14 217 196 217q48 0 89 -21.5t63.5 -47t47 -47t44.5 -21.5q40 0 47 61q6 41 41 41h64q41 0 38 -41q-9 -92 -54.5 -154.5t-135.5 -62.5q-36 0 -66.5 14t-51.5 34t-40 40.5t-40.5 34.5t-43.5 14zM987 436h-551
l-141 -403q-11 -33 -47 -33h-168q-23 0 -32.5 12.5t-2.5 34.5l522 1419q11 33 47 33h195q36 0 47 -33l522 -1419q7 -22 -2.5 -34.5t-32.5 -12.5h-169q-37 0 -48 33zM911 655l-192 549h-12l-193 -549h397z" />
    <glyph glyph-name="Adieresis" unicode="&#xc4;" horiz-adv-x="1419" 
d="M657 1903v-154q0 -41 -41 -41h-127q-40 0 -40 41v154q0 41 40 41h127q41 0 41 -41zM985 1903v-154q0 -41 -41 -41h-127q-41 0 -41 41v154q0 41 41 41h127q41 0 41 -41zM987 436h-551l-141 -403q-11 -33 -47 -33h-168q-23 0 -32.5 12.5t-2.5 34.5l522 1419q11 33 47 33
h195q36 0 47 -33l522 -1419q7 -22 -2.5 -34.5t-32.5 -12.5h-169q-37 0 -48 33zM911 655l-192 549h-12l-193 -549h397z" />
    <glyph glyph-name="Aring" unicode="&#xc5;" horiz-adv-x="1419" 
d="M711 1573q-88 0 -148.5 58.5t-60.5 150.5t60.5 149.5t148.5 57.5t147.5 -57.5t59.5 -149.5t-59.5 -150.5t-147.5 -58.5zM711 1866q-36 0 -60 -23t-24 -61t24 -61t60 -23q35 0 59.5 23.5t24.5 60.5t-24.5 60.5t-59.5 23.5zM987 436h-551l-141 -403q-11 -33 -47 -33h-168
q-23 0 -32.5 12.5t-2.5 34.5l522 1419q11 33 47 33h195q36 0 47 -33l522 -1419q7 -22 -2.5 -34.5t-32.5 -12.5h-169q-37 0 -48 33zM911 655l-192 549h-12l-193 -549h397z" />
    <glyph glyph-name="AE" unicode="&#xc6;" horiz-adv-x="2004" 
d="M1260 1282v-391h528q41 0 41 -41v-137q0 -41 -41 -41h-528v-453h612q41 0 41 -41v-137q0 -41 -41 -41h-813q-41 0 -41 41v395h-490l-229 -407q-17 -29 -49 -29h-172q-25 0 -33 13.5t4 35.5l811 1424q17 28 49 28h965q41 0 41 -41v-137q0 -41 -41 -41h-614zM1018 655v650
l-367 -650h367z" />
    <glyph glyph-name="Ccedilla" unicode="&#xc7;" horiz-adv-x="1568" 
d="M1278 469l152 -2q23 0 32.5 -12.5t1.5 -32.5q-29 -83 -80 -158.5t-125.5 -141.5t-180 -107.5t-228.5 -47.5l-27 -86q60 -13 100 -57t40 -115q0 -83 -58 -137.5t-162 -54.5q-65 0 -125 28q-32 17 -22 54l14 45q11 40 54 24q46 -18 79 -18q28 0 49 16.5t21 36.5
q0 29 -25 48t-83 18h-9q-47 0 -34 47l47 157q-281 35 -450 246t-169 526q0 172 56 319.5t152.5 249.5t230.5 160t286 58q225 0 396.5 -117t244.5 -325q7 -22 -2.5 -35t-32.5 -13l-151 -2q-32 0 -49 29q-70 120 -179 184t-241 64q-99 0 -183.5 -36t-148 -104t-99.5 -173.5
t-36 -237.5q0 -270 137.5 -426t362.5 -156q275 0 395 254q15 31 49 31z" />
    <glyph glyph-name="Egrave" unicode="&#xc8;" horiz-adv-x="1239" 
d="M725 1634h-68q-32 0 -49 25l-202 254q-17 20 -10.5 34.5t32.5 14.5h143q33 0 50 -29l133 -250q12 -22 4 -35.5t-33 -13.5zM393 1280l2 -389h627q41 0 41 -41v-137q0 -41 -41 -41h-625l2 -453h709q41 0 41 -41v-137q0 -41 -41 -41h-926q-41 0 -41 41l9 1417q0 41 40 41
h918q41 0 41 -41v-137q0 -41 -41 -41h-715z" />
    <glyph glyph-name="Eacute" unicode="&#xc9;" horiz-adv-x="1239" 
d="M907 1913l-202 -254q-17 -25 -50 -25h-67q-25 0 -33 13.5t4 35.5l133 250q17 29 49 29h144q26 0 32.5 -14.5t-10.5 -34.5zM393 1280l2 -389h627q41 0 41 -41v-137q0 -41 -41 -41h-625l2 -453h709q41 0 41 -41v-137q0 -41 -41 -41h-926q-41 0 -41 41l9 1417q0 41 40 41
h918q41 0 41 -41v-137q0 -41 -41 -41h-715z" />
    <glyph glyph-name="Ecircumflex" unicode="&#xca;" horiz-adv-x="1239" 
d="M631 1823l-111 -162q-18 -27 -49 -27h-119q-26 0 -32.5 15t10.5 37l213 253q20 23 51 23h102q32 0 52 -23l215 -253q17 -22 10 -37t-33 -15h-119q-30 0 -49 25l-121 164h-20zM393 1280l2 -389h627q41 0 41 -41v-137q0 -41 -41 -41h-625l2 -453h709q41 0 41 -41v-137
q0 -41 -41 -41h-926q-41 0 -41 41l9 1417q0 41 40 41h918q41 0 41 -41v-137q0 -41 -41 -41h-715z" />
    <glyph glyph-name="Edieresis" unicode="&#xcb;" horiz-adv-x="1239" 
d="M592 1903v-154q0 -41 -41 -41h-127q-41 0 -41 41v154q0 41 41 41h127q41 0 41 -41zM920 1903v-154q0 -41 -41 -41h-127q-41 0 -41 41v154q0 41 41 41h127q41 0 41 -41zM393 1280l2 -389h627q41 0 41 -41v-137q0 -41 -41 -41h-625l2 -453h709q41 0 41 -41v-137
q0 -41 -41 -41h-926q-41 0 -41 41l9 1417q0 41 40 41h918q41 0 41 -41v-137q0 -41 -41 -41h-715z" />
    <glyph glyph-name="Igrave" unicode="&#xcc;" horiz-adv-x="788" 
d="M178 1962h144q32 0 49 -29l133 -250q12 -22 4 -35.5t-33 -13.5h-67q-33 0 -50 25l-202 254q-17 20 -10.5 34.5t32.5 14.5zM514 1458l10 -1417q0 -41 -41 -41h-176q-41 0 -41 41l6 1417q0 41 41 41h160q41 0 41 -41z" />
    <glyph glyph-name="Iacute" unicode="&#xcd;" horiz-adv-x="788" 
d="M657 1913l-202 -254q-17 -25 -49 -25h-68q-25 0 -33 13.5t4 35.5l133 250q17 29 50 29h143q26 0 32.5 -14.5t-10.5 -34.5zM514 1458l10 -1417q0 -41 -41 -41h-176q-41 0 -41 41l6 1417q0 41 41 41h160q41 0 41 -41z" />
    <glyph glyph-name="Icircumflex" unicode="&#xce;" horiz-adv-x="788" 
d="M688 1634h-119q-30 0 -49 25l-121 164h-20l-111 -162q-18 -27 -49 -27h-119q-26 0 -32.5 15t10.5 37l213 253q20 23 51 23h102q32 0 52 -23l215 -253q17 -22 10 -37t-33 -15zM514 1458l10 -1417q0 -41 -41 -41h-176q-41 0 -41 41l6 1417q0 41 41 41h160q41 0 41 -41z" />
    <glyph glyph-name="Idieresis" unicode="&#xcf;" horiz-adv-x="788" 
d="M342 1903v-154q0 -41 -41 -41h-127q-41 0 -41 41v154q0 41 41 41h127q41 0 41 -41zM670 1903v-154q0 -41 -41 -41h-127q-41 0 -41 41v154q0 41 41 41h127q41 0 41 -41zM514 1458l10 -1417q0 -41 -41 -41h-176q-41 0 -41 41l6 1417q0 41 41 41h160q41 0 41 -41z" />
    <glyph glyph-name="Eth" unicode="&#xd0;" horiz-adv-x="1544" 
d="M190 1499h527q356 0 545.5 -195.5t189.5 -531.5q0 -133 -29.5 -250t-89.5 -213t-146.5 -164.5t-206.5 -106.5t-263 -38h-535q-41 0 -41 41l2 428h-106q-41 0 -41 41v131q0 41 41 41h108l5 776q0 41 40 41zM401 215h301q242 0 375 139.5t133 390.5q0 264 -132.5 402.5
t-377.5 138.5h-307l4 -604h338q41 0 41 -41v-131q0 -41 -41 -41h-336z" />
    <glyph glyph-name="Ntilde" unicode="&#xd1;" horiz-adv-x="1527" 
d="M666 1780q-47 0 -58 -64q-6 -39 -41 -39h-61q-42 0 -39 41q7 99 53.5 158t143.5 59q48 0 88.5 -21.5t63 -47t47.5 -47t44 -21.5q40 0 47 62q6 41 41 41h64q42 0 39 -41q-9 -92 -55 -155t-136 -63q-36 0 -66.5 14t-51 34.5t-39.5 41t-40.5 34.5t-43.5 14zM1378 1458
l8 -1417q0 -41 -40 -41h-234q-32 0 -49 29l-674 1181l6 -1169q0 -41 -41 -41h-172q-41 0 -41 41l9 1417q0 41 40 41h244q32 0 49 -29l652 -1134l6 1122q0 41 41 41h155q41 0 41 -41z" />
    <glyph glyph-name="Ograve" unicode="&#xd2;" horiz-adv-x="1634" 
d="M600 1974h143q33 0 50 -28l133 -250q12 -22 4 -35.5t-33 -13.5h-68q-33 0 -49 24l-202 254q-17 20 -10.5 34.5t32.5 14.5zM829 1532q152 0 284 -55t226.5 -153.5t148.5 -240.5t54 -309q0 -229 -96 -414t-264.5 -289t-374.5 -104q-152 0 -284.5 58t-228 160t-150 248.5
t-54.5 316.5q0 226 97 405.5t265.5 278t376.5 98.5zM811 1317q-102 0 -188.5 -36t-151 -104t-101 -173.5t-36.5 -237.5q0 -268 137 -425t352 -157q101 0 188 38.5t151 109.5t101 179t37 241q0 266 -136.5 415.5t-352.5 149.5z" />
    <glyph glyph-name="Oacute" unicode="&#xd3;" horiz-adv-x="1634" 
d="M1079 1925l-202 -254q-16 -24 -50 -24h-67q-25 0 -33 13.5t4 35.5l133 250q17 28 49 28h144q26 0 32.5 -14.5t-10.5 -34.5zM829 1532q152 0 284 -55t226.5 -153.5t148.5 -240.5t54 -309q0 -229 -96 -414t-264.5 -289t-374.5 -104q-152 0 -284.5 58t-228 160t-150 248.5
t-54.5 316.5q0 226 97 405.5t265.5 278t376.5 98.5zM811 1317q-102 0 -188.5 -36t-151 -104t-101 -173.5t-36.5 -237.5q0 -268 137 -425t352 -157q101 0 188 38.5t151 109.5t101 179t37 241q0 266 -136.5 415.5t-352.5 149.5z" />
    <glyph glyph-name="Ocircumflex" unicode="&#xd4;" horiz-adv-x="1634" 
d="M1112 1647h-119q-31 0 -49 24l-121 164h-20l-111 -162q-17 -26 -49 -26h-119q-26 0 -32.5 14.5t10.5 36.5l213 254q19 22 51 22h102q33 0 52 -22l215 -254q17 -22 10 -36.5t-33 -14.5zM829 1532q152 0 284 -55t226.5 -153.5t148.5 -240.5t54 -309q0 -229 -96 -414
t-264.5 -289t-374.5 -104q-152 0 -284.5 58t-228 160t-150 248.5t-54.5 316.5q0 226 97 405.5t265.5 278t376.5 98.5zM811 1317q-102 0 -188.5 -36t-151 -104t-101 -173.5t-36.5 -237.5q0 -268 137 -425t352 -157q101 0 188 38.5t151 109.5t101 179t37 241
q0 266 -136.5 415.5t-352.5 149.5z" />
    <glyph glyph-name="Otilde" unicode="&#xd5;" horiz-adv-x="1634" 
d="M715 1935q48 0 88.5 -21.5t63 -47t47 -47t44.5 -21.5q41 0 48 62q6 41 41 41h63q42 0 39 -41q-9 -92 -55 -155t-136 -63q-36 0 -66.5 14t-51 34.5t-39.5 41t-40.5 34.5t-43.5 14q-47 0 -58 -64q-6 -39 -41 -39h-61q-42 0 -39 39q14 219 197 219zM829 1532q152 0 284 -55
t226.5 -153.5t148.5 -240.5t54 -309q0 -229 -96 -414t-264.5 -289t-374.5 -104q-152 0 -284.5 58t-228 160t-150 248.5t-54.5 316.5q0 226 97 405.5t265.5 278t376.5 98.5zM811 1317q-102 0 -188.5 -36t-151 -104t-101 -173.5t-36.5 -237.5q0 -268 137 -425t352 -157
q101 0 188 38.5t151 109.5t101 179t37 241q0 266 -136.5 415.5t-352.5 149.5z" />
    <glyph glyph-name="Odieresis" unicode="&#xd6;" horiz-adv-x="1634" 
d="M764 1913v-154q0 -41 -41 -41h-127q-41 0 -41 41v154q0 41 41 41h127q41 0 41 -41zM1092 1913v-154q0 -41 -41 -41h-127q-41 0 -41 41v154q0 41 41 41h127q41 0 41 -41zM829 1532q152 0 284 -55t226.5 -153.5t148.5 -240.5t54 -309q0 -229 -96 -414t-264.5 -289
t-374.5 -104q-152 0 -284.5 58t-228 160t-150 248.5t-54.5 316.5q0 226 97 405.5t265.5 278t376.5 98.5zM811 1317q-102 0 -188.5 -36t-151 -104t-101 -173.5t-36.5 -237.5q0 -268 137 -425t352 -157q101 0 188 38.5t151 109.5t101 179t37 241q0 266 -136.5 415.5
t-352.5 149.5z" />
    <glyph glyph-name="multiply" unicode="&#xd7;" horiz-adv-x="1351" 
d="M811 481l266 -266q29 -29 0 -57l-78 -80q-29 -28 -57 0l-266 266l-266 -266q-29 -29 -58 0l-78 80q-28 28 0 57l267 266l-267 267q-28 28 0 57l78 76q29 29 58 0l266 -267l266 267q28 29 57 0l78 -76q29 -29 0 -57z" />
    <glyph glyph-name="Oslash" unicode="&#xd8;" horiz-adv-x="1705" 
d="M1559 1446l-123 -148q180 -209 180 -524q0 -171 -56.5 -321.5t-154.5 -257t-234.5 -167.5t-291.5 -61q-245 0 -428 144l-72 -88q-20 -23 -51 -23h-172q-27 0 -34.5 14.5t9.5 36.5l176 211q-143 205 -143 488q0 226 97 405.5t265.5 278t376.5 98.5q207 0 375 -100l35 43
q19 22 51 22h170q27 0 34.5 -14.5t-9.5 -36.5zM406 766q0 -177 63 -309l661 796q-112 64 -245 64q-210 0 -344.5 -145t-134.5 -406zM895 184q209 0 344 152t135 416q0 213 -94 360l-682 -823q127 -105 297 -105z" />
    <glyph glyph-name="Ugrave" unicode="&#xd9;" horiz-adv-x="1542" 
d="M557 1974h143q33 0 50 -28l133 -250q12 -22 4 -35.5t-33 -13.5h-68q-33 0 -49 24l-202 254q-17 20 -10.5 34.5t32.5 14.5zM1397 1458l4 -811q1 -165 -46 -295t-132 -214t-200 -127.5t-253 -43.5q-283 0 -456.5 177.5t-172.5 502.5l4 811q0 41 41 41h160q41 0 41 -41
l4 -784q3 -249 102.5 -369.5t282.5 -120.5q372 0 375 490l4 784q0 41 41 41h160q41 0 41 -41z" />
    <glyph glyph-name="Uacute" unicode="&#xda;" horiz-adv-x="1542" 
d="M1036 1925l-202 -254q-16 -24 -50 -24h-67q-25 0 -33 13.5t4 35.5l133 250q17 28 49 28h144q26 0 32.5 -14.5t-10.5 -34.5zM1397 1458l4 -811q1 -165 -46 -295t-132 -214t-200 -127.5t-253 -43.5q-283 0 -456.5 177.5t-172.5 502.5l4 811q0 41 41 41h160q41 0 41 -41
l4 -784q3 -249 102.5 -369.5t282.5 -120.5q372 0 375 490l4 784q0 41 41 41h160q41 0 41 -41z" />
    <glyph glyph-name="Ucircumflex" unicode="&#xdb;" horiz-adv-x="1542" 
d="M1067 1647h-119q-31 0 -49 24l-121 164h-20l-111 -162q-17 -26 -49 -26h-119q-26 0 -32.5 14.5t10.5 36.5l213 254q19 22 51 22h102q32 0 51 -22l216 -254q17 -22 10 -36.5t-33 -14.5zM1397 1458l4 -811q1 -165 -46 -295t-132 -214t-200 -127.5t-253 -43.5
q-283 0 -456.5 177.5t-172.5 502.5l4 811q0 41 41 41h160q41 0 41 -41l4 -784q3 -249 102.5 -369.5t282.5 -120.5q372 0 375 490l4 784q0 41 41 41h160q41 0 41 -41z" />
    <glyph glyph-name="Udieresis" unicode="&#xdc;" horiz-adv-x="1542" 
d="M721 1913v-154q0 -41 -41 -41h-127q-41 0 -41 41v154q0 41 41 41h127q41 0 41 -41zM1049 1913v-154q0 -41 -41 -41h-127q-41 0 -41 41v154q0 41 41 41h127q41 0 41 -41zM1397 1458l4 -811q1 -165 -46 -295t-132 -214t-200 -127.5t-253 -43.5q-283 0 -456.5 177.5
t-172.5 502.5l4 811q0 41 41 41h160q41 0 41 -41l4 -784q3 -249 102.5 -369.5t282.5 -120.5q372 0 375 490l4 784q0 41 41 41h160q41 0 41 -41z" />
    <glyph glyph-name="Yacute" unicode="&#xdd;" horiz-adv-x="1255" 
d="M891 1925l-203 -254q-16 -24 -49 -24h-68q-25 0 -32.5 13.5t4.5 35.5l133 250q17 28 49 28h143q26 0 33 -14.5t-10 -34.5zM754 604l6 -563q0 -41 -41 -41h-176q-41 0 -41 41l4 565l-459 844q-12 22 -4 35.5t33 13.5h178q32 0 49 -29l324 -612h16l320 612q17 29 49 29h168
q25 0 32.5 -13.5t-4.5 -35.5z" />
    <glyph glyph-name="Thorn" unicode="&#xde;" horiz-adv-x="1402" 
d="M393 1260h391q236 0 381.5 -129t145.5 -336q0 -213 -146.5 -353.5t-380.5 -140.5h-385l2 -260q0 -41 -41 -41h-178q-41 0 -41 41l9 1417q0 41 40 41h160q41 0 41 -41zM399 514h367q148 0 225.5 67t77.5 189q0 128 -84 203.5t-219 75.5h-371z" />
    <glyph glyph-name="germandbls" unicode="&#xdf;" horiz-adv-x="1310" 
d="M946 774q140 -48 207.5 -141.5t67.5 -220.5q0 -87 -32 -161.5t-98.5 -135.5t-180.5 -98.5t-265 -41.5q-43 0 -43 41v140q0 41 43 41q342 11 342 227q0 109 -76 167.5t-245 65.5q-43 0 -43 41v119q0 40 41 43q134 9 198 72.5t64 161.5q0 104 -69.5 167.5t-178.5 63.5
q-132 0 -209 -100.5t-76 -306.5l10 -877q0 -41 -41 -41h-180q-41 0 -41 41l9 877q2 180 60.5 317t180 219t293.5 82q112 0 203.5 -35t148.5 -94t88 -133.5t31 -155.5q0 -105 -52 -197.5t-157 -146.5z" />
    <glyph glyph-name="agrave" unicode="&#xe0;" horiz-adv-x="1179" 
d="M367 1563h143q32 0 49 -29l133 -250q12 -22 4.5 -35.5t-32.5 -13.5h-68q-32 0 -49 25l-203 253q-17 20 -10 35t33 15zM602 1133q197 0 313.5 -104t116.5 -288l8 -700q0 -41 -41 -41h-161q-41 0 -41 41l2 125h-17q-57 -87 -153.5 -138t-216.5 -51q-150 0 -241 82.5
t-91 229.5q0 171 138.5 259t445.5 124q135 15 135 108q0 65 -58.5 106.5t-154.5 41.5q-162 0 -213 -123q-14 -33 -47 -33h-146q-22 0 -32.5 10t-6.5 27q39 149 158 236.5t303 87.5zM797 516l-11 6q-59 -20 -143 -33q-167 -27 -247.5 -68t-80.5 -118q0 -55 39.5 -86
t114.5 -31q73 0 137.5 26t106.5 67t65 89t21 93z" />
    <glyph glyph-name="aacute" unicode="&#xe1;" horiz-adv-x="1179" 
d="M846 1513l-203 -253q-17 -25 -49 -25h-68q-25 0 -32.5 13.5t4.5 35.5l133 250q17 29 49 29h143q26 0 33 -15t-10 -35zM602 1133q197 0 313.5 -104t116.5 -288l8 -700q0 -41 -41 -41h-161q-41 0 -41 41l2 125h-17q-57 -87 -153.5 -138t-216.5 -51q-150 0 -241 82.5
t-91 229.5q0 171 138.5 259t445.5 124q135 15 135 108q0 65 -58.5 106.5t-154.5 41.5q-162 0 -213 -123q-14 -33 -47 -33h-146q-22 0 -32.5 10t-6.5 27q39 149 158 236.5t303 87.5zM797 516l-11 6q-59 -20 -143 -33q-167 -27 -247.5 -68t-80.5 -118q0 -55 39.5 -86
t114.5 -31q73 0 137.5 26t106.5 67t65 89t21 93z" />
    <glyph glyph-name="acircumflex" unicode="&#xe2;" horiz-adv-x="1179" 
d="M877 1235h-119q-30 0 -49 25l-121 163h-21l-110 -161q-18 -27 -49 -27h-119q-26 0 -33 14.5t10 36.5l213 254q20 23 51 23h103q31 0 51 -23l215 -254q17 -22 10.5 -36.5t-32.5 -14.5zM602 1133q197 0 313.5 -104t116.5 -288l8 -700q0 -41 -41 -41h-161q-41 0 -41 41
l2 125h-17q-57 -87 -153.5 -138t-216.5 -51q-150 0 -241 82.5t-91 229.5q0 171 138.5 259t445.5 124q135 15 135 108q0 65 -58.5 106.5t-154.5 41.5q-162 0 -213 -123q-14 -33 -47 -33h-146q-22 0 -32.5 10t-6.5 27q39 149 158 236.5t303 87.5zM797 516l-11 6
q-59 -20 -143 -33q-167 -27 -247.5 -68t-80.5 -118q0 -55 39.5 -86t114.5 -31q73 0 137.5 26t106.5 67t65 89t21 93z" />
    <glyph glyph-name="atilde" unicode="&#xe3;" horiz-adv-x="1179" 
d="M481 1524q39 0 73 -14t57 -34.5t42 -41t37.5 -34.5t34.5 -14q40 0 47 62q6 41 41 41h64q41 0 38 -41q-9 -92 -54.5 -154.5t-135.5 -62.5q-36 0 -66.5 14t-51.5 34.5t-40 40.5t-40.5 34t-43.5 14q-46 0 -57 -63q-6 -39 -41 -39h-61q-42 0 -39 39q14 219 196 219zM602 1133
q197 0 313.5 -104t116.5 -288l8 -700q0 -41 -41 -41h-161q-41 0 -41 41l2 125h-17q-57 -87 -153.5 -138t-216.5 -51q-150 0 -241 82.5t-91 229.5q0 171 138.5 259t445.5 124q135 15 135 108q0 65 -58.5 106.5t-154.5 41.5q-162 0 -213 -123q-14 -33 -47 -33h-146
q-22 0 -32.5 10t-6.5 27q39 149 158 236.5t303 87.5zM797 516l-11 6q-59 -20 -143 -33q-167 -27 -247.5 -68t-80.5 -118q0 -55 39.5 -86t114.5 -31q73 0 137.5 26t106.5 67t65 89t21 93z" />
    <glyph glyph-name="adieresis" unicode="&#xe4;" horiz-adv-x="1179" 
d="M530 1501v-153q0 -41 -41 -41h-127q-40 0 -40 41v153q0 41 40 41h127q41 0 41 -41zM858 1501v-153q0 -41 -41 -41h-127q-41 0 -41 41v153q0 41 41 41h127q41 0 41 -41zM602 1133q197 0 313.5 -104t116.5 -288l8 -700q0 -41 -41 -41h-161q-41 0 -41 41l2 125h-17
q-57 -87 -153.5 -138t-216.5 -51q-150 0 -241 82.5t-91 229.5q0 171 138.5 259t445.5 124q135 15 135 108q0 65 -58.5 106.5t-154.5 41.5q-162 0 -213 -123q-14 -33 -47 -33h-146q-22 0 -32.5 10t-6.5 27q39 149 158 236.5t303 87.5zM797 516l-11 6q-59 -20 -143 -33
q-167 -27 -247.5 -68t-80.5 -118q0 -55 39.5 -86t114.5 -31q73 0 137.5 26t106.5 67t65 89t21 93z" />
    <glyph glyph-name="aring" unicode="&#xe5;" horiz-adv-x="1179" 
d="M582 1589q88 0 147 -57.5t59 -149.5t-59 -150t-147 -58t-148.5 58t-60.5 150t60.5 149.5t148.5 57.5zM582 1466q-36 0 -60 -23t-24 -61t24 -61t60 -23q35 0 59.5 23.5t24.5 60.5t-24.5 60.5t-59.5 23.5zM602 1133q197 0 313.5 -104t116.5 -288l8 -700q0 -41 -41 -41h-161
q-41 0 -41 41l2 125h-17q-57 -87 -153.5 -138t-216.5 -51q-150 0 -241 82.5t-91 229.5q0 171 138.5 259t445.5 124q135 15 135 108q0 65 -58.5 106.5t-154.5 41.5q-162 0 -213 -123q-14 -33 -47 -33h-146q-22 0 -32.5 10t-6.5 27q39 149 158 236.5t303 87.5zM797 516l-11 6
q-59 -20 -143 -33q-167 -27 -247.5 -68t-80.5 -118q0 -55 39.5 -86t114.5 -31q73 0 137.5 26t106.5 67t65 89t21 93z" />
    <glyph glyph-name="ae" unicode="&#xe6;" horiz-adv-x="1900" 
d="M1323 1135q152 0 260.5 -74.5t159.5 -197.5t49 -279q0 -33 -2 -49q0 -39 -41 -39h-709q9 -158 89 -237t198 -79q72 0 118.5 27t86.5 90q17 29 49 29h145q23 0 32.5 -12.5t0.5 -34.5q-63 -152 -179.5 -232t-272.5 -80q-129 0 -236.5 60.5t-175.5 169.5h-18
q-65 -97 -191 -158.5t-274 -61.5q-151 0 -242 82t-92 230q0 185 159.5 277.5t493.5 117.5l66 4v92q0 65 -57.5 106.5t-153.5 41.5q-161 0 -215 -123q-14 -33 -47 -33h-146q-22 0 -32.5 12t-4.5 33q43 146 160.5 231t298.5 85q244 0 361 -154q68 75 161.5 115.5t200.5 40.5z
M1055 684h489q0 99 -65 168.5t-176 69.5q-54 0 -97.5 -19.5t-72.5 -54.5t-47.5 -75t-30.5 -89zM799 510l-60 -4q-227 -17 -325.5 -68t-98.5 -135q0 -55 38.5 -87t113.5 -32q72 0 136.5 30t105.5 75.5t64.5 96t23.5 93.5z" />
    <glyph glyph-name="ccedilla" unicode="&#xe7;" horiz-adv-x="1114" 
d="M610 182q85 0 134.5 31.5t82.5 89.5q15 31 47 31h148q23 0 32.5 -12.5t2.5 -32.5q-44 -121 -151 -212.5t-263 -107.5l-29 -88q60 -13 100 -57t40 -115q0 -83 -58 -137.5t-161 -54.5q-65 0 -125 28q-33 17 -23 54l14 45q11 40 54 24q47 -18 80 -18q27 0 48 16.5t21 36.5
q0 29 -25 48t-83 18h-9q-47 0 -34 47l47 157q-195 29 -308.5 180t-113.5 384q0 275 143 436.5t375 161.5q94 0 176.5 -29t141 -77.5t97.5 -108.5t56 -125q9 -45 -37 -45h-147q-32 0 -47 30q-40 71 -96.5 106.5t-141.5 35.5q-281 0 -281 -379q0 -191 76 -276t217 -85z" />
    <glyph glyph-name="egrave" unicode="&#xe8;" horiz-adv-x="1175" 
d="M371 1563h143q32 0 49 -29l133 -250q12 -22 4.5 -35.5t-32.5 -13.5h-68q-32 0 -49 25l-203 253q-17 20 -10 35t33 15zM618 1135q124 0 220 -46.5t154 -128.5t85.5 -190t20.5 -235q-3 -39 -43 -39h-738q7 -160 90 -238t214 -78q73 0 124.5 27.5t90.5 89.5q17 29 49 29h145
q23 0 32.5 -12.5t0.5 -34.5q-62 -151 -184 -231.5t-279 -80.5q-229 0 -375.5 158.5t-146.5 417.5q0 262 149 427t391 165zM598 922q-211 0 -268 -238h522q-2 100 -68.5 169t-185.5 69z" />
    <glyph glyph-name="eacute" unicode="&#xe9;" horiz-adv-x="1175" 
d="M850 1513l-203 -253q-17 -25 -49 -25h-68q-25 0 -32.5 13.5t4.5 35.5l133 250q17 29 49 29h143q26 0 33 -15t-10 -35zM618 1135q124 0 220 -46.5t154 -128.5t85.5 -190t20.5 -235q-3 -39 -43 -39h-738q7 -160 90 -238t214 -78q73 0 124.5 27.5t90.5 89.5q17 29 49 29h145
q23 0 32.5 -12.5t0.5 -34.5q-62 -151 -184 -231.5t-279 -80.5q-229 0 -375.5 158.5t-146.5 417.5q0 262 149 427t391 165zM598 922q-211 0 -268 -238h522q-2 100 -68.5 169t-185.5 69z" />
    <glyph glyph-name="ecircumflex" unicode="&#xea;" horiz-adv-x="1175" 
d="M881 1235h-119q-30 0 -49 25l-121 163h-21l-110 -161q-18 -27 -49 -27h-119q-26 0 -33 14.5t10 36.5l213 254q20 23 52 23h102q31 0 51 -23l215 -254q17 -22 10.5 -36.5t-32.5 -14.5zM618 1135q124 0 220 -46.5t154 -128.5t85.5 -190t20.5 -235q-3 -39 -43 -39h-738
q7 -160 90 -238t214 -78q73 0 124.5 27.5t90.5 89.5q17 29 49 29h145q23 0 32.5 -12.5t0.5 -34.5q-62 -151 -184 -231.5t-279 -80.5q-229 0 -375.5 158.5t-146.5 417.5q0 262 149 427t391 165zM598 922q-211 0 -268 -238h522q-2 100 -68.5 169t-185.5 69z" />
    <glyph glyph-name="edieresis" unicode="&#xeb;" horiz-adv-x="1175" 
d="M535 1501v-153q0 -41 -41 -41h-127q-41 0 -41 41v153q0 41 41 41h127q41 0 41 -41zM862 1501v-153q0 -41 -41 -41h-127q-41 0 -41 41v153q0 41 41 41h127q41 0 41 -41zM618 1135q124 0 220 -46.5t154 -128.5t85.5 -190t20.5 -235q-3 -39 -43 -39h-738q7 -160 90 -238
t214 -78q73 0 124.5 27.5t90.5 89.5q17 29 49 29h145q23 0 32.5 -12.5t0.5 -34.5q-62 -151 -184 -231.5t-279 -80.5q-229 0 -375.5 158.5t-146.5 417.5q0 262 149 427t391 165zM598 922q-211 0 -268 -238h522q-2 100 -68.5 169t-185.5 69z" />
    <glyph glyph-name="igrave" unicode="&#xec;" horiz-adv-x="571" 
d="M70 1563h143q32 0 49 -29l133 -250q12 -22 4.5 -35.5t-32.5 -13.5h-68q-32 0 -49 25l-203 253q-17 20 -10 35t33 15zM403 1059l9 -1018q0 -41 -41 -41h-170q-41 0 -41 41l8 1018q0 41 41 41h153q41 0 41 -41z" />
    <glyph glyph-name="iacute" unicode="&#xed;" horiz-adv-x="571" 
d="M551 1513l-203 -253q-17 -25 -49 -25h-68q-25 0 -32.5 13.5t4.5 35.5l133 250q17 29 49 29h143q26 0 33 -15t-10 -35zM403 1059l9 -1018q0 -41 -41 -41h-170q-41 0 -41 41l8 1018q0 41 41 41h153q41 0 41 -41z" />
    <glyph glyph-name="icircumflex" unicode="&#xee;" horiz-adv-x="571" 
d="M582 1235h-119q-30 0 -49 25l-121 163h-21l-110 -161q-18 -27 -49 -27h-119q-26 0 -33 14.5t10 36.5l213 254q20 23 52 23h102q31 0 51 -23l215 -254q17 -22 10.5 -36.5t-32.5 -14.5zM403 1059l9 -1018q0 -41 -41 -41h-170q-41 0 -41 41l8 1018q0 41 41 41h153
q41 0 41 -41z" />
    <glyph glyph-name="idieresis" unicode="&#xef;" horiz-adv-x="571" 
d="M236 1501v-153q0 -41 -41 -41h-127q-41 0 -41 41v153q0 41 41 41h127q41 0 41 -41zM563 1501v-153q0 -41 -41 -41h-127q-41 0 -41 41v153q0 41 41 41h127q41 0 41 -41zM403 1059l9 -1018q0 -41 -41 -41h-170q-41 0 -41 41l8 1018q0 41 41 41h153q41 0 41 -41z" />
    <glyph glyph-name="eth" unicode="&#xf0;" horiz-adv-x="1228" 
d="M879 1405l-70 -37q148 -141 228.5 -333.5t80.5 -418.5q0 -315 -141 -482t-383 -167t-379 158.5t-137 413.5q0 173 65 309.5t176 210.5t246 74q117 0 219 -52l11 9q-62 97 -172 180l-156 -84q-38 -18 -55 18l-25 45q-18 38 19 56l88 47l-34 17l-34 17q-42 19 -16 56
l65 100q22 31 55 14q99 -45 168 -98l119 64q37 18 55 -19l23 -43q21 -37 -16 -55zM598 182q126 0 206.5 98t80.5 277q0 176 -79.5 270.5t-207.5 94.5q-126 0 -203.5 -94t-77.5 -271q0 -180 78.5 -277.5t202.5 -97.5z" />
    <glyph glyph-name="ntilde" unicode="&#xf1;" 
d="M506 1524q39 0 73 -14t57 -34.5t42 -41t37.5 -34.5t34.5 -14q40 0 47 62q6 41 41 41h63q42 0 39 -41q-9 -92 -54.5 -154.5t-135.5 -62.5q-36 0 -66.5 14t-51.5 34.5t-40 40.5t-40.5 34t-43.5 14q-46 0 -57 -63q-6 -39 -41 -39h-62q-42 0 -39 39q14 219 197 219zM721 1133
q164 0 264 -113t100 -311v-668q0 -41 -41 -41h-172q-41 0 -41 41v606q0 125 -52 190.5t-144 65.5q-119 0 -188.5 -97t-59.5 -282l4 -483q0 -41 -41 -41h-170q-41 0 -41 41l8 1018q0 41 41 41h154q41 0 41 -41l2 -109h16q117 183 320 183z" />
    <glyph glyph-name="ograve" unicode="&#xf2;" horiz-adv-x="1226" 
d="M397 1563h144q32 0 49 -29l133 -250q12 -22 4 -35.5t-33 -13.5h-67q-32 0 -49 25l-203 253q-17 20 -10.5 35t32.5 15zM623 1133q150 0 269.5 -71t188 -201.5t68.5 -297.5q0 -169 -71.5 -306t-196 -213.5t-277.5 -76.5q-227 0 -376.5 163t-149.5 415q0 128 41.5 237.5
t114 186.5t173.5 120.5t216 43.5zM596 922q-124 0 -201.5 -96t-77.5 -259q0 -173 90 -279t222 -106q123 0 200.5 97t77.5 258q0 176 -88.5 280.5t-222.5 104.5z" />
    <glyph glyph-name="oacute" unicode="&#xf3;" horiz-adv-x="1226" 
d="M877 1513l-203 -253q-17 -25 -49 -25h-68q-25 0 -33 13.5t4 35.5l134 250q17 29 49 29h143q26 0 33 -15t-10 -35zM623 1133q150 0 269.5 -71t188 -201.5t68.5 -297.5q0 -169 -71.5 -306t-196 -213.5t-277.5 -76.5q-227 0 -376.5 163t-149.5 415q0 128 41.5 237.5
t114 186.5t173.5 120.5t216 43.5zM596 922q-124 0 -201.5 -96t-77.5 -259q0 -173 90 -279t222 -106q123 0 200.5 97t77.5 258q0 176 -88.5 280.5t-222.5 104.5z" />
    <glyph glyph-name="ocircumflex" unicode="&#xf4;" horiz-adv-x="1226" 
d="M909 1235h-118q-31 0 -50 25l-120 163h-21l-111 -161q-18 -27 -49 -27h-118q-26 0 -33 14.5t10 36.5l213 254q20 23 51 23h103q31 0 51 -23l215 -254q17 -22 10 -36.5t-33 -14.5zM623 1133q150 0 269.5 -71t188 -201.5t68.5 -297.5q0 -169 -71.5 -306t-196 -213.5
t-277.5 -76.5q-227 0 -376.5 163t-149.5 415q0 128 41.5 237.5t114 186.5t173.5 120.5t216 43.5zM596 922q-124 0 -201.5 -96t-77.5 -259q0 -173 90 -279t222 -106q123 0 200.5 97t77.5 258q0 176 -88.5 280.5t-222.5 104.5z" />
    <glyph glyph-name="otilde" unicode="&#xf5;" horiz-adv-x="1226" 
d="M512 1524q39 0 73 -14t57 -34.5t42 -41t37.5 -34.5t34.5 -14q40 0 47 62q6 41 41 41h63q42 0 39 -41q-9 -92 -54.5 -154.5t-135.5 -62.5q-36 0 -66.5 14t-51.5 34.5t-40 40.5t-40.5 34t-43.5 14q-46 0 -57 -63q-6 -39 -41 -39h-62q-42 0 -39 39q14 219 197 219zM623 1133
q150 0 269.5 -71t188 -201.5t68.5 -297.5q0 -169 -71.5 -306t-196 -213.5t-277.5 -76.5q-227 0 -376.5 163t-149.5 415q0 128 41.5 237.5t114 186.5t173.5 120.5t216 43.5zM596 922q-124 0 -201.5 -96t-77.5 -259q0 -173 90 -279t222 -106q123 0 200.5 97t77.5 258
q0 176 -88.5 280.5t-222.5 104.5z" />
    <glyph glyph-name="odieresis" unicode="&#xf6;" horiz-adv-x="1226" 
d="M561 1501v-153q0 -41 -41 -41h-127q-41 0 -41 41v153q0 41 41 41h127q41 0 41 -41zM889 1501v-153q0 -41 -41 -41h-127q-41 0 -41 41v153q0 41 41 41h127q41 0 41 -41zM623 1133q150 0 269.5 -71t188 -201.5t68.5 -297.5q0 -169 -71.5 -306t-196 -213.5t-277.5 -76.5
q-227 0 -376.5 163t-149.5 415q0 128 41.5 237.5t114 186.5t173.5 120.5t216 43.5zM596 922q-124 0 -201.5 -96t-77.5 -259q0 -173 90 -279t222 -106q123 0 200.5 97t77.5 258q0 176 -88.5 280.5t-222.5 104.5z" />
    <glyph glyph-name="divide" unicode="&#xf7;" horiz-adv-x="1660" 
d="M915 1049v-164q0 -41 -41 -41h-188q-41 0 -41 41v164q0 41 41 41h188q41 0 41 -41zM1415 612v-131q0 -41 -41 -41h-1087q-41 0 -41 41v131q0 41 41 41h1087q41 0 41 -41zM915 188v-163q0 -41 -41 -41h-188q-41 0 -41 41v163q0 41 41 41h188q41 0 41 -41z" />
    <glyph glyph-name="oslash" unicode="&#xf8;" horiz-adv-x="1376" 
d="M1255 1049l-133 -152q90 -142 90 -334q0 -127 -42 -238t-114 -189.5t-173 -123.5t-215 -45q-161 0 -289 86l-27 -30q-20 -23 -51 -23h-156q-28 0 -34.5 14.5t12.5 36.5l121 137q-105 150 -105 357q0 128 41.5 237.5t114 186.5t173.5 120.5t216 43.5q172 0 309 -97l35 41
q20 23 51 23h154q28 0 34.5 -14.5t-12.5 -36.5zM379 567q0 -105 35 -186l424 479q-77 62 -179 62q-125 0 -202.5 -96t-77.5 -259zM971 537q0 88 -25 161l-411 -469q71 -47 155 -47q124 0 202.5 97t78.5 258z" />
    <glyph glyph-name="ugrave" unicode="&#xf9;" horiz-adv-x="1210" 
d="M387 1563h143q33 0 50 -29l133 -250q12 -22 4 -35.5t-33 -13.5h-68q-32 0 -49 25l-202 253q-17 20 -10.5 35t32.5 15zM1061 1059l10 -1018q0 -41 -41 -41h-172q-42 0 -39 41l2 109h-16q-111 -183 -311 -183q-164 0 -260 116.5t-95 332.5l4 643q0 41 41 41h154
q41 0 41 -41l4 -584q1 -144 49.5 -211t142.5 -67q116 0 184.5 95.5t61.5 282.5l6 484q0 41 41 41h152q41 0 41 -41z" />
    <glyph glyph-name="uacute" unicode="&#xfa;" horiz-adv-x="1210" 
d="M866 1513l-202 -253q-17 -25 -50 -25h-67q-25 0 -33 13.5t4 35.5l133 250q17 29 49 29h144q26 0 32.5 -15t-10.5 -35zM1061 1059l10 -1018q0 -41 -41 -41h-172q-42 0 -39 41l2 109h-16q-111 -183 -311 -183q-164 0 -260 116.5t-95 332.5l4 643q0 41 41 41h154
q41 0 41 -41l4 -584q1 -144 49.5 -211t142.5 -67q116 0 184.5 95.5t61.5 282.5l6 484q0 41 41 41h152q41 0 41 -41z" />
    <glyph glyph-name="ucircumflex" unicode="&#xfb;" horiz-adv-x="1210" 
d="M897 1235h-119q-30 0 -49 25l-121 163h-20l-111 -161q-18 -27 -49 -27h-119q-26 0 -32.5 14.5t10.5 36.5l213 254q20 23 51 23h102q32 0 52 -23l215 -254q17 -22 10 -36.5t-33 -14.5zM1061 1059l10 -1018q0 -41 -41 -41h-172q-42 0 -39 41l2 109h-16q-111 -183 -311 -183
q-164 0 -260 116.5t-95 332.5l4 643q0 41 41 41h154q41 0 41 -41l4 -584q1 -144 49.5 -211t142.5 -67q116 0 184.5 95.5t61.5 282.5l6 484q0 41 41 41h152q41 0 41 -41z" />
    <glyph glyph-name="udieresis" unicode="&#xfc;" horiz-adv-x="1210" 
d="M551 1501v-153q0 -41 -41 -41h-127q-41 0 -41 41v153q0 41 41 41h127q41 0 41 -41zM879 1501v-153q0 -41 -41 -41h-127q-41 0 -41 41v153q0 41 41 41h127q41 0 41 -41zM1061 1059l10 -1018q0 -41 -41 -41h-172q-42 0 -39 41l2 109h-16q-111 -183 -311 -183
q-164 0 -260 116.5t-95 332.5l4 643q0 41 41 41h154q41 0 41 -41l4 -584q1 -144 49.5 -211t142.5 -67q116 0 184.5 95.5t61.5 282.5l6 484q0 41 41 41h152q41 0 41 -41z" />
    <glyph glyph-name="yacute" unicode="&#xfd;" horiz-adv-x="1136" 
d="M838 1513l-203 -253q-17 -25 -49 -25h-68q-25 0 -33 13.5t4 35.5l134 250q17 29 49 29h143q26 0 33 -15t-10 -35zM901 1100h148q48 0 32 -47l-503 -1471q-11 -33 -48 -33h-174q-22 0 -30.5 13t-1.5 35l125 342l-394 1114q-7 22 2 34.5t31 12.5h150q36 0 45 -33l268 -797
h16l287 797q11 33 47 33z" />
    <glyph glyph-name="thorn" unicode="&#xfe;" horiz-adv-x="1263" 
d="M733 1133q132 0 235.5 -74t160.5 -204t57 -294q0 -262 -141 -428t-359 -166q-93 0 -159.5 24t-127.5 77h-10l2 -478q0 -41 -41 -41h-170q-41 0 -41 41l8 1510l3 399q0 41 40 41h154q41 0 41 -41v-549l16 2q55 89 143 135t189 46zM668 180q135 0 205.5 95t70.5 268
q0 179 -76.5 279t-201.5 100q-127 0 -211 -102t-84 -277q-4 -178 79.5 -270.5t217.5 -92.5z" />
    <glyph glyph-name="ydieresis" unicode="&#xff;" horiz-adv-x="1136" 
d="M522 1501v-153q0 -41 -41 -41h-127q-41 0 -41 41v153q0 41 41 41h127q41 0 41 -41zM850 1501v-153q0 -41 -41 -41h-127q-41 0 -41 41v153q0 41 41 41h127q41 0 41 -41zM901 1100h148q48 0 32 -47l-503 -1471q-11 -33 -48 -33h-174q-22 0 -30.5 13t-1.5 35l125 342
l-394 1114q-7 22 2 34.5t31 12.5h150q36 0 45 -33l268 -797h16l287 797q11 33 47 33z" />
    <glyph glyph-name="Amacron" unicode="&#x100;" horiz-adv-x="1419" 
d="M971 1866v-99q0 -41 -41 -41h-441q-40 0 -40 41v99q0 41 40 41h441q41 0 41 -41zM987 436h-551l-141 -403q-11 -33 -47 -33h-168q-23 0 -32.5 12.5t-2.5 34.5l522 1419q11 33 47 33h195q36 0 47 -33l522 -1419q7 -22 -2.5 -34.5t-32.5 -12.5h-169q-37 0 -48 33zM911 655
l-192 549h-12l-193 -549h397z" />
    <glyph glyph-name="amacron" unicode="&#x101;" horiz-adv-x="1179" 
d="M844 1464v-98q0 -41 -41 -41h-441q-40 0 -40 41v98q0 41 40 41h441q41 0 41 -41zM602 1133q197 0 313.5 -104t116.5 -288l8 -700q0 -41 -41 -41h-161q-41 0 -41 41l2 125h-17q-57 -87 -153.5 -138t-216.5 -51q-150 0 -241 82.5t-91 229.5q0 171 138.5 259t445.5 124
q135 15 135 108q0 65 -58.5 106.5t-154.5 41.5q-162 0 -213 -123q-14 -33 -47 -33h-146q-22 0 -32.5 10t-6.5 27q39 149 158 236.5t303 87.5zM797 516l-11 6q-59 -20 -143 -33q-167 -27 -247.5 -68t-80.5 -118q0 -55 39.5 -86t114.5 -31q73 0 137.5 26t106.5 67t65 89t21 93
z" />
    <glyph glyph-name="Abreve" unicode="&#x102;" horiz-adv-x="1419" 
d="M707 1589q-137 0 -218 74t-81 221q0 33 41 33h92q41 0 41 -33q0 -70 35 -105.5t90 -35.5q57 0 92 35.5t35 105.5q0 33 40 33h95q41 0 41 -33q0 -147 -82 -221t-221 -74zM987 436h-551l-141 -403q-11 -33 -47 -33h-168q-23 0 -32.5 12.5t-2.5 34.5l522 1419q11 33 47 33
h195q36 0 47 -33l522 -1419q7 -22 -2.5 -34.5t-32.5 -12.5h-169q-37 0 -48 33zM911 655l-192 549h-12l-193 -549h397z" />
    <glyph glyph-name="abreve" unicode="&#x103;" horiz-adv-x="1179" 
d="M883 1485q0 -147 -82 -221t-221 -74q-137 0 -218 74t-81 221q0 33 41 33h92q41 0 41 -33q0 -70 35.5 -106t89.5 -36q57 0 92 36t35 106q0 33 41 33h94q41 0 41 -33zM602 1133q197 0 313.5 -104t116.5 -288l8 -700q0 -41 -41 -41h-161q-41 0 -41 41l2 125h-17
q-57 -87 -153.5 -138t-216.5 -51q-150 0 -241 82.5t-91 229.5q0 171 138.5 259t445.5 124q135 15 135 108q0 65 -58.5 106.5t-154.5 41.5q-162 0 -213 -123q-14 -33 -47 -33h-146q-22 0 -32.5 10t-6.5 27q39 149 158 236.5t303 87.5zM797 516l-11 6q-59 -20 -143 -33
q-167 -27 -247.5 -68t-80.5 -118q0 -55 39.5 -86t114.5 -31q73 0 137.5 26t106.5 67t65 89t21 93z" />
    <glyph glyph-name="Aogonek" unicode="&#x104;" horiz-adv-x="1419" 
d="M1382 0q-115 -66 -179 -128.5t-64 -113.5q0 -63 96 -63q46 0 90 8q45 6 45 -37v-84q0 -39 -35 -45q-59 -12 -108 -12q-121 0 -188.5 61t-67.5 164q0 147 155 283l-139 403h-551l-141 -403q-11 -33 -47 -33h-168q-23 0 -32.5 12.5t-2.5 34.5l522 1419q11 33 47 33h195
q36 0 47 -33l522 -1419q16 -47 4 -47zM911 655l-192 549h-12l-193 -549h397z" />
    <glyph glyph-name="aogonek" unicode="&#x105;" horiz-adv-x="1179" 
d="M1024 0q-244 -140 -244 -242q0 -63 97 -63q46 0 90 8q45 6 45 -37v-84q0 -39 -35 -45q-59 -12 -109 -12q-121 0 -188.5 61t-67.5 164q0 161 185 307l2 109h-17q-57 -87 -153.5 -138t-216.5 -51q-150 0 -241 82.5t-91 229.5q0 171 138.5 259t445.5 124q135 15 135 108
q0 65 -58.5 106.5t-154.5 41.5q-162 0 -213 -123q-14 -33 -47 -33h-146q-22 0 -32.5 12t-4.5 33q41 146 159 231t300 85q197 0 313.5 -104t116.5 -288l8 -700q0 -41 -16 -41zM469 186q73 0 137.5 26t106.5 67t65 89t21 93l-2 55l-11 6q-59 -20 -143 -33q-167 -27 -247.5 -68
t-80.5 -118q0 -55 39.5 -86t114.5 -31z" />
    <glyph glyph-name="Cacute" unicode="&#x106;" horiz-adv-x="1568" 
d="M1049 1911l-203 -254q-17 -25 -49 -25h-68q-25 0 -33 13.5t4 35.5l134 250q17 29 49 29h143q26 0 33 -14.5t-10 -34.5zM815 1532q225 0 396.5 -117t244.5 -325q7 -22 -2.5 -35t-32.5 -13l-151 -2q-32 0 -49 29q-70 120 -179 184t-241 64q-99 0 -183.5 -36t-148 -104
t-99.5 -173.5t-36 -237.5q0 -270 137.5 -426t362.5 -156q275 0 395 254q15 31 49 31l152 -2q23 0 32.5 -12.5t1.5 -32.5q-30 -87 -84 -164.5t-133 -144.5t-192 -106.5t-244 -39.5q-213 0 -377.5 99t-254 275.5t-89.5 403.5q0 172 56 319.5t152.5 249.5t230.5 160t286 58z
" />
    <glyph glyph-name="cacute" unicode="&#x107;" horiz-adv-x="1114" 
d="M838 1513l-203 -253q-17 -25 -49 -25h-68q-25 0 -33 13.5t4 35.5l134 250q17 29 49 29h143q26 0 33 -15t-10 -35zM596 1135q94 0 176.5 -29t141 -77.5t97.5 -108.5t56 -125q9 -45 -37 -45h-147q-32 0 -47 30q-40 71 -96.5 106.5t-141.5 35.5q-281 0 -281 -379
q0 -191 76 -276t217 -85q85 0 134.5 31.5t82.5 89.5q15 31 47 31h148q23 0 32.5 -12.5t2.5 -32.5q-22 -62 -61.5 -117.5t-96.5 -102.5t-137.5 -74.5t-173.5 -27.5q-233 0 -371.5 155.5t-138.5 414.5q0 275 143 436.5t375 161.5z" />
    <glyph glyph-name="Cdotaccent" unicode="&#x10a;" horiz-adv-x="1568" 
d="M903 1896v-153q0 -41 -41 -41h-153q-41 0 -41 41v153q0 41 41 41h153q41 0 41 -41zM815 1532q225 0 396.5 -117t244.5 -325q7 -22 -2.5 -35t-32.5 -13l-151 -2q-32 0 -49 29q-70 120 -179 184t-241 64q-99 0 -183.5 -36t-148 -104t-99.5 -173.5t-36 -237.5
q0 -270 137.5 -426t362.5 -156q275 0 395 254q15 31 49 31l152 -2q23 0 32.5 -12.5t1.5 -32.5q-30 -87 -84 -164.5t-133 -144.5t-192 -106.5t-244 -39.5q-213 0 -377.5 99t-254 275.5t-89.5 403.5q0 172 56 319.5t152.5 249.5t230.5 160t286 58z" />
    <glyph glyph-name="cdotaccent" unicode="&#x10b;" horiz-adv-x="1114" 
d="M692 1499v-153q0 -41 -41 -41h-153q-41 0 -41 41v153q0 41 41 41h153q41 0 41 -41zM596 1135q94 0 176.5 -29t141 -77.5t97.5 -108.5t56 -125q9 -45 -37 -45h-147q-32 0 -47 30q-40 71 -96.5 106.5t-141.5 35.5q-281 0 -281 -379q0 -191 76 -276t217 -85q85 0 134.5 31.5
t82.5 89.5q15 31 47 31h148q23 0 32.5 -12.5t2.5 -32.5q-22 -62 -61.5 -117.5t-96.5 -102.5t-137.5 -74.5t-173.5 -27.5q-233 0 -371.5 155.5t-138.5 414.5q0 275 143 436.5t375 161.5z" />
    <glyph glyph-name="Ccaron" unicode="&#x10c;" horiz-adv-x="1568" 
d="M487 1960h119q30 0 49 -25l121 -163h21l110 161q18 27 49 27h119q26 0 33 -14.5t-10 -36.5l-213 -254q-20 -23 -51 -23h-103q-31 0 -51 23l-215 254q-17 22 -10.5 36.5t32.5 14.5zM815 1532q225 0 396.5 -117t244.5 -325q7 -22 -2.5 -35t-32.5 -13l-151 -2q-32 0 -49 29
q-70 120 -179 184t-241 64q-99 0 -183.5 -36t-148 -104t-99.5 -173.5t-36 -237.5q0 -270 137.5 -426t362.5 -156q275 0 395 254q15 31 49 31l152 -2q23 0 32.5 -12.5t1.5 -32.5q-30 -87 -84 -164.5t-133 -144.5t-192 -106.5t-244 -39.5q-213 0 -377.5 99t-254 275.5
t-89.5 403.5q0 172 56 319.5t152.5 249.5t230.5 160t286 58z" />
    <glyph glyph-name="ccaron" unicode="&#x10d;" horiz-adv-x="1114" 
d="M276 1561h119q30 0 49 -25l121 -164h21l110 162q18 27 49 27h119q26 0 33 -15t-10 -37l-213 -254q-19 -22 -51 -22h-103q-32 0 -51 22l-215 254q-17 22 -10.5 37t32.5 15zM596 1135q94 0 176.5 -29t141 -77.5t97.5 -108.5t56 -125q9 -45 -37 -45h-147q-32 0 -47 30
q-40 71 -96.5 106.5t-141.5 35.5q-281 0 -281 -379q0 -191 76 -276t217 -85q85 0 134.5 31.5t82.5 89.5q15 31 47 31h148q23 0 32.5 -12.5t2.5 -32.5q-22 -62 -61.5 -117.5t-96.5 -102.5t-137.5 -74.5t-173.5 -27.5q-233 0 -371.5 155.5t-138.5 414.5q0 275 143 436.5
t375 161.5z" />
    <glyph glyph-name="Dcaron" unicode="&#x10e;" horiz-adv-x="1544" 
d="M735 1632h-102q-31 0 -51 23l-215 254q-17 22 -10.5 36.5t32.5 14.5h119q30 0 49 -25l121 -163h20l111 161q18 27 49 27h119q26 0 32.5 -14.5t-10.5 -36.5l-213 -254q-20 -23 -51 -23zM190 1499h527q356 0 545.5 -195.5t189.5 -531.5q0 -133 -29.5 -250t-89.5 -213
t-146.5 -164.5t-206.5 -106.5t-263 -38h-535q-41 0 -41 41l9 1417q0 41 40 41zM401 215h301q242 0 375 139.5t133 390.5q0 264 -132.5 402.5t-377.5 138.5h-307z" />
    <glyph glyph-name="dcaron" unicode="&#x10f;" horiz-adv-x="1261" 
d="M920 1540h153q41 0 41 -41l8 -1458q0 -41 -41 -41h-172q-41 0 -41 41v104h-14q-51 -89 -137 -133.5t-189 -44.5q-131 0 -234 73.5t-159.5 203.5t-56.5 293q0 267 144.5 431.5t377.5 164.5q161 0 266 -105h11l2 471q0 41 41 41zM1323 1540h98q46 0 37 -45l-49 -268
q-6 -37 -43 -37h-72q-42 0 -39 43l25 268q3 39 43 39zM596 182q129 0 212.5 101t80.5 278q3 177 -80.5 269t-214.5 92q-134 0 -205.5 -96.5t-71.5 -268.5q0 -180 77 -277.5t202 -97.5z" />
    <glyph glyph-name="Dcroat" unicode="&#x110;" horiz-adv-x="1544" 
d="M190 1499h527q356 0 545.5 -195.5t189.5 -531.5q0 -133 -29.5 -250t-89.5 -213t-146.5 -164.5t-206.5 -106.5t-263 -38h-535q-41 0 -41 41l2 428h-106q-41 0 -41 41v131q0 41 41 41h108l5 776q0 41 40 41zM401 215h301q242 0 375 139.5t133 390.5q0 264 -132.5 402.5
t-377.5 138.5h-307l4 -604h338q41 0 41 -41v-131q0 -41 -41 -41h-336z" />
    <glyph glyph-name="dcroat" unicode="&#x111;" horiz-adv-x="1261" 
d="M1292 1411v-76q0 -41 -41 -41h-135l6 -1253q0 -41 -41 -41h-172q-41 0 -41 41v104h-14q-51 -89 -137 -133.5t-189 -44.5q-131 0 -234 73.5t-159.5 203.5t-56.5 293q0 267 144.5 431.5t377.5 164.5q161 0 266 -105h11l2 266h-252q-41 0 -41 41v76q0 41 41 41h252v47
q0 41 41 41h153q41 0 41 -41v-47h137q41 0 41 -41zM596 182q129 0 212.5 101t80.5 278q3 177 -80.5 269t-214.5 92q-134 0 -205.5 -96.5t-71.5 -268.5q0 -180 77 -277.5t202 -97.5z" />
    <glyph glyph-name="Emacron" unicode="&#x112;" horiz-adv-x="1239" 
d="M905 1866v-99q0 -41 -41 -41h-440q-41 0 -41 41v99q0 41 41 41h440q41 0 41 -41zM393 1280l2 -389h627q41 0 41 -41v-137q0 -41 -41 -41h-625l2 -453h709q41 0 41 -41v-137q0 -41 -41 -41h-926q-41 0 -41 41l9 1417q0 41 40 41h918q41 0 41 -41v-137q0 -41 -41 -41h-715z
" />
    <glyph glyph-name="emacron" unicode="&#x113;" horiz-adv-x="1175" 
d="M848 1464v-98q0 -41 -41 -41h-440q-41 0 -41 41v98q0 41 41 41h440q41 0 41 -41zM618 1135q124 0 220 -46.5t154 -128.5t85.5 -190t20.5 -235q-3 -39 -43 -39h-738q7 -160 90 -238t214 -78q73 0 124.5 27.5t90.5 89.5q17 29 49 29h145q23 0 32.5 -12.5t0.5 -34.5
q-62 -151 -184 -231.5t-279 -80.5q-229 0 -375.5 158.5t-146.5 417.5q0 262 149 427t391 165zM598 922q-211 0 -268 -238h522q-2 100 -68.5 169t-185.5 69z" />
    <glyph glyph-name="Edotaccent" unicode="&#x116;" horiz-adv-x="1239" 
d="M764 1898v-153q0 -41 -41 -41h-154q-41 0 -41 41v153q0 41 41 41h154q41 0 41 -41zM393 1280l2 -389h627q41 0 41 -41v-137q0 -41 -41 -41h-625l2 -453h709q41 0 41 -41v-137q0 -41 -41 -41h-926q-41 0 -41 41l9 1417q0 41 40 41h918q41 0 41 -41v-137q0 -41 -41 -41
h-715z" />
    <glyph glyph-name="edotaccent" unicode="&#x117;" horiz-adv-x="1175" 
d="M705 1499v-153q0 -41 -41 -41h-154q-41 0 -41 41v153q0 41 41 41h154q41 0 41 -41zM618 1135q124 0 220 -46.5t154 -128.5t85.5 -190t20.5 -235q-3 -39 -43 -39h-738q7 -160 90 -238t214 -78q73 0 124.5 27.5t90.5 89.5q17 29 49 29h145q23 0 32.5 -12.5t0.5 -34.5
q-62 -151 -184 -231.5t-279 -80.5q-229 0 -375.5 158.5t-146.5 417.5q0 262 149 427t391 165zM598 922q-211 0 -268 -238h522q-2 100 -68.5 169t-185.5 69z" />
    <glyph glyph-name="Eogonek" unicode="&#x118;" horiz-adv-x="1239" 
d="M393 1280l2 -389h627q41 0 41 -41v-137q0 -41 -41 -41h-625l2 -453h709q41 0 41 -41v-137q0 -17 -2 -23q-1 -6 -5.5 -11t-8.5 -7.5t-11.5 -7t-11.5 -6.5q-105 -61 -163 -120t-58 -108q0 -63 96 -63q46 0 90 8q45 6 45 -37v-84q0 -39 -35 -45q-59 -12 -108 -12
q-121 0 -188.5 61t-67.5 164q0 129 121 250h-660q-41 0 -41 41l9 1417q0 41 40 41h918q41 0 41 -41v-137q0 -41 -41 -41h-715z" />
    <glyph glyph-name="eogonek" unicode="&#x119;" horiz-adv-x="1175" 
d="M618 1135q124 0 220 -46.5t154 -128.5t85.5 -190t20.5 -235q-3 -39 -43 -39h-738q7 -160 90 -238t214 -78q73 0 124.5 27.5t90.5 89.5q17 29 49 29h145q23 0 32.5 -12.5t0.5 -34.5q-45 -113 -126.5 -187t-188.5 -104q-216 -133 -216 -226q0 -63 97 -63q46 0 90 8
q45 6 45 -37v-84q0 -39 -35 -45q-58 -12 -108 -12q-121 0 -188.5 61t-67.5 164q0 118 100 230q-176 43 -281.5 192t-105.5 367q0 262 149 427t391 165zM330 684h522q-2 100 -68.5 169t-185.5 69q-211 0 -268 -238z" />
    <glyph glyph-name="Ecaron" unicode="&#x11a;" horiz-adv-x="1239" 
d="M694 1634h-102q-31 0 -51 23l-215 254q-17 22 -10.5 36.5t32.5 14.5h119q30 0 49 -25l121 -163h20l111 161q18 27 49 27h119q26 0 32.5 -14.5t-10.5 -36.5l-213 -254q-20 -23 -51 -23zM393 1280l2 -389h627q41 0 41 -41v-137q0 -41 -41 -41h-625l2 -453h709q41 0 41 -41
v-137q0 -41 -41 -41h-926q-41 0 -41 41l9 1417q0 41 40 41h918q41 0 41 -41v-137q0 -41 -41 -41h-715z" />
    <glyph glyph-name="ecaron" unicode="&#x11b;" horiz-adv-x="1175" 
d="M289 1561h119q30 0 49 -25l121 -164h20l111 162q18 27 49 27h119q26 0 32.5 -15t-10.5 -37l-213 -254q-19 -22 -51 -22h-103q-32 0 -51 22l-215 254q-17 22 -10 37t33 15zM618 1135q124 0 220 -46.5t154 -128.5t85.5 -190t20.5 -235q-3 -39 -43 -39h-738q7 -160 90 -238
t214 -78q73 0 124.5 27.5t90.5 89.5q17 29 49 29h145q23 0 32.5 -12.5t0.5 -34.5q-62 -151 -184 -231.5t-279 -80.5q-229 0 -375.5 158.5t-146.5 417.5q0 262 149 427t391 165zM598 922q-211 0 -268 -238h522q-2 100 -68.5 169t-185.5 69z" />
    <glyph glyph-name="Gbreve" unicode="&#x11e;" horiz-adv-x="1630" 
d="M811 1587q-137 0 -218 74t-81 221q0 33 41 33h92q41 0 41 -33q0 -70 35 -105.5t90 -35.5q57 0 92 35.5t35 105.5q0 33 41 33h94q41 0 41 -33q0 -147 -82 -221t-221 -74zM934 748h553q45 0 45 -52q-5 -151 -57 -284t-143.5 -232t-227 -156t-297.5 -57q-205 0 -366 99
t-251 277.5t-90 406.5q0 170 56 316t153 248t231.5 160t288.5 58q218 0 389.5 -115t243.5 -307q9 -22 0 -34.5t-32 -12.5l-152 -4q-32 0 -49 28q-73 110 -181 170t-237 60q-100 0 -184.5 -36t-148 -104t-99 -173.5t-35.5 -237.5q0 -270 137.5 -426t362.5 -156q156 0 273 91
t159 253h-342q-41 0 -41 41v138q0 41 41 41z" />
    <glyph glyph-name="gbreve" unicode="&#x11f;" horiz-adv-x="1265" 
d="M621 1190q-137 0 -218 74t-81 221q0 33 40 33h93q41 0 41 -33q0 -70 35.5 -106t89.5 -36q57 0 92 36t35 106q0 33 40 33h95q41 0 41 -33q0 -147 -82 -221t-221 -74zM1114 1059l12 -893q3 -163 -35 -289t-109.5 -203.5t-166.5 -117t-211 -39.5q-154 0 -270 69t-180 201
q-10 22 -1.5 35.5t31.5 13.5h156q28 0 49 -24q69 -82 211 -82q62 0 110 17.5t85.5 57t56 110t16.5 169.5v27h-12q-52 -60 -112 -85.5t-148 -25.5q-231 0 -374.5 156t-143.5 411q0 242 126.5 404t323.5 162q103 0 190 -48t140 -137h16l3 111q3 41 43 41h153q41 0 41 -41z
M594 213q131 0 214.5 82t80.5 240q3 178 -80.5 282.5t-212.5 104.5q-124 0 -201.5 -100.5t-77.5 -274.5q0 -162 71 -248t206 -86z" />
    <glyph glyph-name="Gdotaccent" unicode="&#x120;" horiz-adv-x="1630" 
d="M934 1896v-153q0 -41 -41 -41h-154q-41 0 -41 41v153q0 41 41 41h154q41 0 41 -41zM934 748h553q45 0 45 -52q-5 -151 -57 -284t-143.5 -232t-227 -156t-297.5 -57q-205 0 -366 99t-251 277.5t-90 406.5q0 170 56 316t153 248t231.5 160t288.5 58q218 0 389.5 -115
t243.5 -307q9 -22 0 -34.5t-32 -12.5l-152 -4q-32 0 -49 28q-73 110 -181 170t-237 60q-100 0 -184.5 -36t-148 -104t-99 -173.5t-35.5 -237.5q0 -270 137.5 -426t362.5 -156q156 0 273 91t159 253h-342q-41 0 -41 41v138q0 41 41 41z" />
    <glyph glyph-name="gdotaccent" unicode="&#x121;" horiz-adv-x="1265" 
d="M741 1499v-153q0 -41 -41 -41h-153q-41 0 -41 41v153q0 41 41 41h153q41 0 41 -41zM1114 1059l12 -893q3 -163 -35 -289t-109.5 -203.5t-166.5 -117t-211 -39.5q-154 0 -270 69t-180 201q-10 22 -1.5 35.5t31.5 13.5h156q28 0 49 -24q69 -82 211 -82q62 0 110 17.5
t85.5 57t56 110t16.5 169.5v27h-12q-52 -60 -112 -85.5t-148 -25.5q-231 0 -374.5 156t-143.5 411q0 242 126.5 404t323.5 162q103 0 190 -48t140 -137h16l3 111q3 41 43 41h153q41 0 41 -41zM594 213q131 0 214.5 82t80.5 240q3 178 -80.5 282.5t-212.5 104.5
q-124 0 -201.5 -100.5t-77.5 -274.5q0 -162 71 -248t206 -86z" />
    <glyph glyph-name="Gcommaaccent" unicode="&#x122;" horiz-adv-x="1630" 
d="M934 748h553q45 0 45 -52q-5 -151 -57 -284t-143.5 -232t-227 -156t-297.5 -57q-205 0 -366 99t-251 277.5t-90 406.5q0 170 56 316t153 248t231.5 160t288.5 58q218 0 389.5 -115t243.5 -307q9 -22 0 -34.5t-32 -12.5l-152 -4q-32 0 -49 28q-73 110 -181 170t-237 60
q-100 0 -184.5 -36t-148 -104t-99 -173.5t-35.5 -237.5q0 -270 137.5 -426t362.5 -156q156 0 273 91t159 253h-342q-41 0 -41 41v138q0 41 41 41zM709 -283v105q0 41 41 41h131q41 0 41 -41v-84q0 -206 -127 -297q-25 -19 -56 -4q-38 20 -8 57q39 47 42 94.5t-36 79.5
q-28 22 -28 49z" />
    <glyph glyph-name="gcommaaccent" unicode="&#x123;" horiz-adv-x="1265" 
d="M729 1382v-104q0 -41 -41 -41h-131q-41 0 -41 41v84q0 206 127 297q25 19 55 4q39 -20 9 -57q-39 -47 -42.5 -94.5t35.5 -79.5q29 -23 29 -50zM1114 1059l12 -893q3 -163 -35 -289t-109.5 -203.5t-166.5 -117t-211 -39.5q-154 0 -270 69t-180 201q-10 22 -1.5 35.5
t31.5 13.5h156q28 0 49 -24q69 -82 211 -82q62 0 110 17.5t85.5 57t56 110t16.5 169.5v27h-12q-52 -60 -112 -85.5t-148 -25.5q-231 0 -374.5 156t-143.5 411q0 242 126.5 404t323.5 162q103 0 190 -48t140 -137h16l3 111q3 41 43 41h153q41 0 41 -41zM594 213
q131 0 214.5 82t80.5 240q3 178 -80.5 282.5t-212.5 104.5q-124 0 -201.5 -100.5t-77.5 -274.5q0 -162 71 -248t206 -86z" />
    <glyph glyph-name="Hbar" unicode="&#x126;" horiz-adv-x="1538" 
d="M1556 1223v-76q0 -41 -40 -41h-125l6 -1065q0 -41 -41 -41h-178q-41 0 -41 41l4 631h-744l4 -631q0 -41 -41 -41h-178q-41 0 -41 41l6 1065h-122q-41 0 -41 41v76q0 41 41 41h122l3 194q0 41 40 41h160q41 0 41 -41l2 -194h752l2 194q0 41 41 41h160q41 0 41 -41l2 -194
h125q40 0 40 -41zM1143 1106h-750l2 -215h748v215z" />
    <glyph glyph-name="hbar" unicode="&#x127;" horiz-adv-x="1214" 
d="M821 41l6 606q1 122 -49 182t-143 60q-119 0 -188.5 -92.5t-59.5 -272.5l4 -483q0 -41 -41 -41h-170q-41 0 -41 41l6 1167h-137q-41 0 -41 41v58q0 41 41 41h139v151q0 41 41 41h154q41 0 41 -41l2 -151h248q41 0 41 -41v-58q0 -41 -41 -41h-248l2 -258h19
q110 170 311 170q162 0 257.5 -108.5t96.5 -302.5l4 -668q0 -41 -41 -41h-172q-41 0 -41 41z" />
    <glyph glyph-name="Itilde" unicode="&#x128;" horiz-adv-x="788" 
d="M293 1923q48 0 89 -21.5t63.5 -47t47.5 -47t44 -21.5q40 0 47 61q6 41 41 41h63q42 0 39 -41q-9 -92 -54.5 -154.5t-135.5 -62.5q-36 0 -66.5 14t-51.5 34t-40 40.5t-40.5 34.5t-43.5 14q-46 0 -57 -63q-6 -39 -41 -39h-62q-42 0 -39 39q14 219 197 219zM514 1458
l10 -1417q0 -41 -41 -41h-176q-41 0 -41 41l6 1417q0 41 41 41h160q41 0 41 -41z" />
    <glyph glyph-name="itilde" unicode="&#x129;" horiz-adv-x="571" 
d="M186 1524q39 0 73 -14t57 -34.5t42 -41t37.5 -34.5t34.5 -14q40 0 47 62q6 41 41 41h64q42 0 39 -41q-9 -92 -55 -154.5t-136 -62.5q-36 0 -66.5 14t-51.5 34.5t-40 40.5t-40.5 34t-43.5 14q-46 0 -57 -63q-6 -39 -41 -39h-61q-42 0 -39 39q14 219 196 219zM403 1059
l9 -1018q0 -41 -41 -41h-170q-41 0 -41 41l8 1018q0 41 41 41h153q41 0 41 -41z" />
    <glyph glyph-name="Imacron" unicode="&#x12a;" horiz-adv-x="788" 
d="M655 1866v-99q0 -41 -41 -41h-440q-41 0 -41 41v99q0 41 41 41h440q41 0 41 -41zM514 1458l10 -1417q0 -41 -41 -41h-176q-41 0 -41 41l6 1417q0 41 41 41h160q41 0 41 -41z" />
    <glyph glyph-name="imacron" unicode="&#x12b;" horiz-adv-x="571" 
d="M547 1464v-98q0 -41 -41 -41h-440q-41 0 -41 41v98q0 41 41 41h440q41 0 41 -41zM403 1059l9 -1018q0 -41 -41 -41h-170q-41 0 -41 41l8 1018q0 41 41 41h153q41 0 41 -41z" />
    <glyph glyph-name="Iogonek" unicode="&#x12e;" horiz-adv-x="788" 
d="M524 0h-2q-8 -4 -28 -16q-215 -129 -215 -226q0 -63 96 -63q46 0 90 8q45 6 45 -37v-84q0 -39 -35 -45q-58 -12 -108 -12q-121 0 -188.5 61t-67.5 164q0 147 155 283l6 1425q0 41 41 41h160q41 0 41 -41z" />
    <glyph glyph-name="iogonek" unicode="&#x12f;" horiz-adv-x="571" 
d="M406 1499v-153q0 -41 -41 -41h-154q-41 0 -41 41v153q0 41 41 41h154q41 0 41 -41zM168 -242q0 -63 96 -63q46 0 90 8q45 6 45 -37v-84q0 -40 -34 -45q-58 -12 -109 -12q-121 0 -188.5 61t-67.5 164q0 146 160 287l8 1022q0 41 41 41h153q41 0 41 -41l9 -1026
q0 -29 -62 -70q-182 -119 -182 -205z" />
    <glyph glyph-name="Idotaccent" unicode="&#x130;" horiz-adv-x="788" 
d="M512 1898v-153q0 -41 -41 -41h-154q-41 0 -41 41v153q0 41 41 41h154q41 0 41 -41zM514 1458l10 -1417q0 -41 -41 -41h-176q-41 0 -41 41l6 1417q0 41 41 41h160q41 0 41 -41z" />
    <glyph glyph-name="dotlessi" unicode="&#x131;" horiz-adv-x="571" 
d="M403 1059l9 -1018q0 -41 -41 -41h-170q-41 0 -41 41l8 1018q0 41 41 41h153q41 0 41 -41z" />
    <glyph glyph-name="IJ" unicode="&#x132;" horiz-adv-x="1570" 
d="M514 1458l10 -1417q0 -41 -41 -41h-176q-41 0 -41 41l6 1417q0 41 41 41h160q41 0 41 -41zM1300 1077l7 -803q0 -136 -18 -241t-57 -182t-94.5 -129.5t-134 -84t-170.5 -45.5t-210 -14h-80q-41 0 -41 41v133q0 41 41 41h78q245 0 339 100.5t95 362.5l4 821v381
q0 41 41 41h160q40 0 40 -41v-381z" />
    <glyph glyph-name="ij" unicode="&#x133;" horiz-adv-x="1191" 
d="M406 1499v-153q0 -41 -41 -41h-154q-41 0 -41 41v153q0 41 41 41h154q41 0 41 -41zM1006 1499v-153q0 -41 -41 -41h-154q-41 0 -41 41v153q0 41 41 41h154q41 0 41 -41zM403 1059l9 -1018q0 -41 -41 -41h-170q-41 0 -41 41l8 1018q0 41 41 41h153q41 0 41 -41zM1006 1059
l8 -1059q1 -221 -111 -331.5t-344 -119.5q-43 0 -43 41v131q0 40 41 43q110 9 156.5 58.5t48.5 157.5l8 1079q0 41 41 41h154q41 0 41 -41z" />
    <glyph glyph-name="Kcommaaccent" unicode="&#x136;" horiz-adv-x="1447" 
d="M776 862l619 -813q17 -20 9.5 -34.5t-34.5 -14.5h-217q-30 0 -49 25l-488 682l-219 -213l4 -453q0 -41 -41 -41h-178q-41 0 -41 41l9 1417q0 41 40 41h160q41 0 41 -41l4 -682l717 703q20 20 49 20h195q28 0 34 -15.5t-14 -35.5zM618 -283v105q0 41 41 41h132
q40 0 40 -41v-84q0 -206 -126 -297q-25 -19 -56 -4q-38 20 -8 57q39 47 42 94.5t-36 79.5q-29 23 -29 49z" />
    <glyph glyph-name="kcommaaccent" unicode="&#x137;" horiz-adv-x="1198" 
d="M639 639l446 -590q15 -20 7.5 -34.5t-33.5 -14.5h-185q-31 0 -49 27l-333 471l-103 -97l2 -360q0 -41 -41 -41h-170q-41 0 -41 41l8 1458q0 41 41 41h154q41 0 41 -41l4 -840l434 420q21 21 49 21h177q28 0 34 -15.5t-14 -35.5zM494 -283v105q0 41 41 41h131q41 0 41 -41
v-84q0 -206 -127 -297q-25 -19 -56 -4q-38 20 -8 57q39 47 42 94.5t-36 79.5q-28 22 -28 49z" />
    <glyph glyph-name="Lacute" unicode="&#x139;" 
d="M539 1925l-203 -254q-16 -24 -49 -24h-68q-25 0 -33 13.5t4 35.5l134 250q17 28 49 28h143q26 0 33 -14.5t-10 -34.5zM399 219h731q41 0 41 -41v-137q0 -41 -41 -41h-948q-41 0 -41 41l9 1417q0 41 40 41h160q41 0 41 -41z" />
    <glyph glyph-name="lacute" unicode="&#x13a;" horiz-adv-x="608" 
d="M569 1935l-202 -254q-16 -24 -50 -24h-67q-25 0 -33 13.5t4 35.5l133 250q17 29 49 29h144q26 0 32.5 -15t-10.5 -35zM422 1499l8 -1458q0 -41 -41 -41h-170q-41 0 -41 41l8 1458q0 41 41 41h154q41 0 41 -41z" />
    <glyph glyph-name="Lcommaaccent" unicode="&#x13b;" 
d="M399 219h731q41 0 41 -41v-137q0 -41 -41 -41h-948q-41 0 -41 41l9 1417q0 41 40 41h160q41 0 41 -41zM514 -283v105q0 41 41 41h131q41 0 41 -41v-84q0 -206 -127 -297q-25 -19 -55 -4q-38 20 -8 57q39 47 42 94.5t-36 79.5q-29 23 -29 49z" />
    <glyph glyph-name="lcommaaccent" unicode="&#x13c;" horiz-adv-x="608" 
d="M422 1499l8 -1458q0 -41 -41 -41h-170q-41 0 -41 41l8 1458q0 41 41 41h154q41 0 41 -41zM412 -178v-84q0 -206 -127 -297q-25 -19 -56 -4q-38 20 -8 57q39 47 42 94.5t-36 79.5q-28 22 -28 49v105q0 41 41 41h131q41 0 41 -41z" />
    <glyph glyph-name="Lcaron" unicode="&#x13d;" 
d="M399 219h731q41 0 41 -41v-137q0 -41 -41 -41h-948q-41 0 -41 41l9 1417q0 41 40 41h160q41 0 41 -41z" />
    <glyph glyph-name="lcaron" unicode="&#x13e;" horiz-adv-x="608" 
d="M422 1499l8 -1458q0 -41 -41 -41h-170q-41 0 -41 41l8 1458q0 41 41 41h154q41 0 41 -41zM711 1245l-49 -268q-6 -37 -44 -37h-71q-42 0 -39 43l24 268q3 39 43 39h99q46 0 37 -45z" />
    <glyph glyph-name="Ldot" unicode="&#x13f;" 
d="M399 219h731q41 0 41 -41v-137q0 -41 -41 -41h-948q-41 0 -41 41l9 1417q0 41 40 41h160q41 0 41 -41zM881 891v-164q0 -41 -41 -41h-189q-41 0 -41 41v164q0 41 41 41h189q41 0 41 -41z" />
    <glyph glyph-name="ldot" unicode="&#x140;" horiz-adv-x="608" 
d="M422 1499l8 -1458q0 -41 -41 -41h-170q-41 0 -41 41l8 1458q0 41 41 41h154q41 0 41 -41zM723 932v-164q0 -41 -41 -41h-129q-41 0 -41 41v164q0 41 41 41h129q41 0 41 -41z" />
    <glyph glyph-name="Lslash" unicode="&#x141;" 
d="M399 219h731q41 0 41 -41v-137q0 -41 -41 -41h-948q-41 0 -41 41l2 451l-92 -52q-22 -12 -35.5 -4t-13.5 33v133q0 32 29 49l114 66l5 741q0 41 40 41h160q41 0 41 -41l4 -600l375 213q22 12 35.5 4t13.5 -33v-133q0 -32 -28 -49l-394 -223z" />
    <glyph glyph-name="lslash" unicode="&#x142;" horiz-adv-x="608" 
d="M623 1042v-133q0 -32 -29 -49l-168 -96l4 -723q0 -41 -41 -41h-170q-41 0 -41 41l4 582l-143 -82q-22 -12 -35.5 -4.5t-13.5 32.5v133q0 33 28 50l164 94l4 653q0 41 41 41h154q41 0 41 -41l2 -514l149 86q22 12 36 4t14 -33z" />
    <glyph glyph-name="Nacute" unicode="&#x143;" horiz-adv-x="1527" 
d="M1028 1925l-203 -254q-16 -24 -49 -24h-67q-25 0 -33 13.5t4 35.5l133 250q17 28 49 28h144q26 0 32.5 -14.5t-10.5 -34.5zM1378 1458l8 -1417q0 -41 -40 -41h-234q-32 0 -49 29l-674 1181l6 -1169q0 -41 -41 -41h-172q-41 0 -41 41l9 1417q0 41 40 41h244q32 0 49 -29
l652 -1134l6 1122q0 41 41 41h155q41 0 41 -41z" />
    <glyph glyph-name="nacute" unicode="&#x144;" 
d="M870 1513l-202 -253q-17 -25 -50 -25h-67q-25 0 -33 13.5t4 35.5l133 250q17 29 50 29h143q26 0 32.5 -15t-10.5 -35zM721 1133q164 0 264 -113t100 -311v-668q0 -41 -41 -41h-172q-41 0 -41 41v606q0 125 -52 190.5t-144 65.5q-119 0 -188.5 -97t-59.5 -282l4 -483
q0 -41 -41 -41h-170q-41 0 -41 41l8 1018q0 41 41 41h154q41 0 41 -41l2 -109h16q117 183 320 183z" />
    <glyph glyph-name="Ncommaaccent" unicode="&#x145;" horiz-adv-x="1527" 
d="M1378 1458l8 -1417q0 -41 -40 -41h-234q-32 0 -49 29l-674 1181l6 -1169q0 -41 -41 -41h-172q-41 0 -41 41l9 1417q0 41 40 41h244q32 0 49 -29l652 -1134l6 1122q0 41 41 41h155q41 0 41 -41zM657 -283v105q0 41 41 41h131q41 0 41 -41v-84q0 -206 -127 -297
q-25 -19 -55 -4q-38 20 -8 57q39 47 42 94.5t-36 79.5q-29 23 -29 49z" />
    <glyph glyph-name="ncommaaccent" unicode="&#x146;" 
d="M721 1133q164 0 264 -113t100 -311v-668q0 -41 -41 -41h-172q-41 0 -41 41v606q0 125 -52 190.5t-144 65.5q-119 0 -188.5 -97t-59.5 -282l4 -483q0 -41 -41 -41h-170q-41 0 -41 41l8 1018q0 41 41 41h154q41 0 41 -41l2 -109h16q117 183 320 183zM713 -178v-84
q0 -206 -127 -297q-25 -19 -56 -4q-38 20 -8 57q39 47 42 94.5t-36 79.5q-28 22 -28 49v105q0 41 41 41h131q41 0 41 -41z" />
    <glyph glyph-name="Ncaron" unicode="&#x147;" horiz-adv-x="1527" 
d="M813 1645h-102q-33 0 -52 22l-215 254q-17 22 -10 36.5t33 14.5h119q31 0 49 -24l121 -164h20l111 162q17 26 49 26h119q26 0 32.5 -14.5t-10.5 -36.5l-213 -254q-19 -22 -51 -22zM1378 1458l8 -1417q0 -41 -40 -41h-234q-32 0 -49 29l-674 1181l6 -1169q0 -41 -41 -41
h-172q-41 0 -41 41l9 1417q0 41 40 41h244q32 0 49 -29l652 -1134l6 1122q0 41 41 41h155q41 0 41 -41z" />
    <glyph glyph-name="ncaron" unicode="&#x148;" 
d="M309 1561h119q30 0 49 -25l121 -164h20l111 162q18 27 49 27h119q26 0 33 -15t-10 -37l-213 -254q-19 -22 -52 -22h-102q-32 0 -51 22l-215 254q-17 22 -10.5 37t32.5 15zM721 1133q164 0 264 -113t100 -311v-668q0 -41 -41 -41h-172q-41 0 -41 41v606q0 125 -52 190.5
t-144 65.5q-119 0 -188.5 -97t-59.5 -282l4 -483q0 -41 -41 -41h-170q-41 0 -41 41l8 1018q0 41 41 41h154q41 0 41 -41l2 -109h16q117 183 320 183z" />
    <glyph glyph-name="Eng" unicode="&#x14a;" horiz-adv-x="1527" 
d="M1378 1458l11 -1458q1 -221 -111 -331.5t-344 -119.5q-43 0 -43 41v134q0 37 41 40q109 9 156 59t47 157v24l-746 1225l6 -1188q0 -41 -41 -41h-172q-41 0 -41 41l9 1417q0 41 40 41h244q32 0 49 -26l654 -1072l8 1057q0 41 41 41h151q41 0 41 -41z" />
    <glyph glyph-name="eng" unicode="&#x14b;" 
d="M721 1133q164 0 264 -113t100 -311v-717q0 -220 -111 -327t-343 -116q-43 0 -43 41v131q0 40 41 43q110 8 156 58.5t46 169.5v655q0 125 -52 190.5t-144 65.5q-119 0 -188.5 -97t-59.5 -282l4 -483q0 -41 -41 -41h-170q-41 0 -41 41l8 1018q0 41 41 41h154q41 0 41 -41
l2 -109h16q117 183 320 183z" />
    <glyph glyph-name="Omacron" unicode="&#x14c;" horiz-adv-x="1634" 
d="M1077 1876v-98q0 -41 -41 -41h-440q-41 0 -41 41v98q0 41 41 41h440q41 0 41 -41zM829 1532q152 0 284 -55t226.5 -153.5t148.5 -240.5t54 -309q0 -229 -96 -414t-264.5 -289t-374.5 -104q-152 0 -284.5 58t-228 160t-150 248.5t-54.5 316.5q0 226 97 405.5t265.5 278
t376.5 98.5zM811 1317q-102 0 -188.5 -36t-151 -104t-101 -173.5t-36.5 -237.5q0 -268 137 -425t352 -157q101 0 188 38.5t151 109.5t101 179t37 241q0 266 -136.5 415.5t-352.5 149.5z" />
    <glyph glyph-name="omacron" unicode="&#x14d;" horiz-adv-x="1226" 
d="M874 1464v-98q0 -41 -40 -41h-441q-41 0 -41 41v98q0 41 41 41h441q40 0 40 -41zM623 1133q150 0 269.5 -71t188 -201.5t68.5 -297.5q0 -169 -71.5 -306t-196 -213.5t-277.5 -76.5q-227 0 -376.5 163t-149.5 415q0 128 41.5 237.5t114 186.5t173.5 120.5t216 43.5z
M596 922q-124 0 -201.5 -96t-77.5 -259q0 -173 90 -279t222 -106q123 0 200.5 97t77.5 258q0 176 -88.5 280.5t-222.5 104.5z" />
    <glyph glyph-name="Ohungarumlaut" unicode="&#x150;" horiz-adv-x="1634" 
d="M952 1929l-202 -254q-16 -24 -50 -24h-67q-25 0 -33 13.5t4 35.5l133 250q17 28 49 28h144q26 0 32.5 -14.5t-10.5 -34.5zM1292 1929l-202 -254q-16 -24 -50 -24h-67q-25 0 -33 13.5t4 35.5l133 250q17 28 49 28h144q26 0 32.5 -14.5t-10.5 -34.5zM829 1532
q152 0 284 -55t226.5 -153.5t148.5 -240.5t54 -309q0 -229 -96 -414t-264.5 -289t-374.5 -104q-152 0 -284.5 58t-228 160t-150 248.5t-54.5 316.5q0 226 97 405.5t265.5 278t376.5 98.5zM811 1317q-102 0 -188.5 -36t-151 -104t-101 -173.5t-36.5 -237.5q0 -268 137 -425
t352 -157q101 0 188 38.5t151 109.5t101 179t37 241q0 266 -136.5 415.5t-352.5 149.5z" />
    <glyph glyph-name="ohungarumlaut" unicode="&#x151;" horiz-adv-x="1226" 
d="M748 1518l-203 -254q-17 -25 -49 -25h-68q-25 0 -33 13.5t4 35.5l133 250q17 29 50 29h143q26 0 33 -14.5t-10 -34.5zM1087 1518l-202 -254q-17 -25 -49 -25h-68q-25 0 -33 13.5t4 35.5l133 250q17 29 50 29h143q26 0 32.5 -14.5t-10.5 -34.5zM623 1133q150 0 269.5 -71
t188 -201.5t68.5 -297.5q0 -169 -71.5 -306t-196 -213.5t-277.5 -76.5q-227 0 -376.5 163t-149.5 415q0 128 41.5 237.5t114 186.5t173.5 120.5t216 43.5zM596 922q-124 0 -201.5 -96t-77.5 -259q0 -173 90 -279t222 -106q123 0 200.5 97t77.5 258q0 176 -88.5 280.5
t-222.5 104.5z" />
    <glyph glyph-name="OE" unicode="&#x152;" horiz-adv-x="1923" 
d="M1180 1282l2 -391h524q41 0 41 -41v-137q0 -41 -41 -41h-524l2 -453h606q41 0 41 -41v-137q0 -41 -41 -41h-952q-226 0 -396.5 95.5t-261 265.5t-90.5 389q0 217 99 388t274.5 266t396.5 95l932 -2q41 0 41 -41v-133q0 -41 -41 -41h-612zM930 215l4 1069h-74
q-242 0 -384 -134t-142 -384q0 -256 144 -403.5t382 -147.5h70z" />
    <glyph glyph-name="oe" unicode="&#x153;" horiz-adv-x="2007" 
d="M1448 1135q164 0 277 -81t162 -215t40 -304q0 -39 -41 -39h-739q9 -160 91 -238t212 -78q74 0 125 27t92 90q17 29 49 29h146q23 0 32 -12.5t0 -34.5q-62 -150 -184.5 -231t-279.5 -81q-128 0 -234 52.5t-176 148.5q-75 -95 -182.5 -148t-233.5 -53q-227 0 -376.5 163
t-149.5 415q0 128 41.5 237.5t114 186.5t173.5 120.5t216 43.5q125 0 230.5 -51t176.5 -144q73 94 180 145.5t238 51.5zM629 182q123 0 200.5 97t77.5 258q0 176 -88.5 280.5t-222.5 104.5q-124 0 -201.5 -96t-77.5 -259q0 -173 90 -279t222 -106zM1161 684h520
q-2 100 -68.5 169t-185.5 69q-209 0 -266 -238z" />
    <glyph glyph-name="Racute" unicode="&#x154;" horiz-adv-x="1390" 
d="M975 1911l-203 -254q-17 -25 -49 -25h-68q-25 0 -32.5 13.5t4.5 35.5l133 250q17 29 49 29h143q26 0 33 -14.5t-10 -34.5zM641 623h-244l4 -582q0 -41 -41 -41h-178q-41 0 -41 41l9 1417q0 41 40 41h592q229 0 367.5 -120.5t138.5 -309.5q0 -160 -101.5 -278.5
t-277.5 -153.5l418 -588q14 -20 6.5 -34.5t-33.5 -14.5h-213q-33 0 -51 27zM397 836h357q293 0 293 215q0 109 -78 172t-215 63h-361z" />
    <glyph glyph-name="racute" unicode="&#x155;" horiz-adv-x="786" 
d="M666 1513l-203 -253q-17 -25 -49 -25h-68q-25 0 -33 13.5t4 35.5l134 250q17 29 49 29h143q26 0 33 -15t-10 -35zM739 1090v-172q0 -41 -41 -41q-77 -2 -131 -17.5t-98.5 -52t-65 -106t-16.5 -171.5l4 -489q0 -41 -41 -41h-170q-41 0 -41 41l8 1018q0 41 41 41h154
q41 0 41 -41l2 -105h16q56 74 133.5 120.5t161.5 55.5q43 3 43 -40z" />
    <glyph glyph-name="Rcommaaccent" unicode="&#x156;" horiz-adv-x="1390" 
d="M909 637l418 -588q14 -20 6.5 -34.5t-33.5 -14.5h-213q-33 0 -51 27l-395 596h-244l4 -582q0 -41 -41 -41h-178q-41 0 -41 41l9 1417q0 41 40 41h592q229 0 367.5 -120.5t138.5 -309.5q0 -160 -101.5 -278.5t-277.5 -153.5zM397 836h357q293 0 293 215q0 109 -78 172
t-215 63h-361zM604 -283v105q0 41 41 41h131q41 0 41 -41v-84q0 -206 -127 -297q-25 -19 -55 -4q-38 20 -8 57q39 47 42 94.5t-36 79.5q-29 23 -29 49z" />
    <glyph glyph-name="rcommaaccent" unicode="&#x157;" horiz-adv-x="786" 
d="M739 1090v-172q0 -41 -41 -41q-77 -2 -131 -17.5t-98.5 -52t-65 -106t-16.5 -171.5l4 -489q0 -41 -41 -41h-170q-41 0 -41 41l8 1018q0 41 41 41h154q41 0 41 -41l2 -105h16q56 74 133.5 120.5t161.5 55.5q43 3 43 -40zM369 -178v-84q0 -206 -127 -297q-25 -19 -56 -4
q-38 20 -8 57q39 47 42 94.5t-36 79.5q-28 22 -28 49v105q0 41 41 41h131q41 0 41 -41z" />
    <glyph glyph-name="Rcaron" unicode="&#x158;" horiz-adv-x="1390" 
d="M762 1632h-103q-31 0 -51 23l-215 254q-17 22 -10 36.5t33 14.5h119q30 0 49 -25l121 -163h20l111 161q18 27 49 27h119q26 0 32.5 -14.5t-10.5 -36.5l-213 -254q-20 -23 -51 -23zM641 623h-244l4 -582q0 -41 -41 -41h-178q-41 0 -41 41l9 1417q0 41 40 41h592
q229 0 367.5 -120.5t138.5 -309.5q0 -160 -101.5 -278.5t-277.5 -153.5l418 -588q14 -20 6.5 -34.5t-33.5 -14.5h-213q-33 0 -51 27zM397 836h357q293 0 293 215q0 109 -78 172t-215 63h-361z" />
    <glyph glyph-name="rcaron" unicode="&#x159;" horiz-adv-x="786" 
d="M106 1561h119q30 0 49 -25l121 -164h21l110 162q18 27 49 27h119q26 0 33 -15t-10 -37l-213 -254q-19 -22 -51 -22h-103q-32 0 -51 22l-215 254q-17 22 -10.5 37t32.5 15zM739 1090v-172q0 -41 -41 -41q-77 -2 -131 -17.5t-98.5 -52t-65 -106t-16.5 -171.5l4 -489
q0 -41 -41 -41h-170q-41 0 -41 41l8 1018q0 41 41 41h154q41 0 41 -41l2 -105h16q56 74 133.5 120.5t161.5 55.5q43 3 43 -40z" />
    <glyph glyph-name="Sacute" unicode="&#x15a;" horiz-adv-x="1384" 
d="M956 1911l-202 -254q-17 -25 -49 -25h-68q-25 0 -33 13.5t4 35.5l133 250q17 29 50 29h143q26 0 32.5 -14.5t-10.5 -34.5zM698 1532q211 0 355 -104.5t204 -274.5q8 -22 -1.5 -34.5t-32.5 -12.5h-152q-32 0 -49 29q-52 86 -139.5 133t-204.5 47q-135 0 -203.5 -49.5
t-68.5 -130.5t75.5 -134t270.5 -112l65 -21q254 -78 364.5 -196.5t110.5 -276.5q0 -202 -152.5 -315t-408.5 -113q-113 0 -211.5 25.5t-167.5 66.5t-122.5 96.5t-85 112t-46.5 115.5q-9 45 37 45h162q31 0 47 -31q110 -211 399 -211q299 0 299 176q0 86 -80 152t-270 129
l-74 27q-227 74 -341 173.5t-121 254.5q-4 131 69.5 231t197 151.5t275.5 51.5z" />
    <glyph glyph-name="sacute" unicode="&#x15b;" horiz-adv-x="1105" 
d="M817 1513l-203 -253q-17 -25 -49 -25h-67q-25 0 -33 13.5t4 35.5l133 250q17 29 49 29h144q26 0 32.5 -15t-10.5 -35zM553 1133q94 0 174.5 -27t134.5 -71.5t89 -95.5t50 -105q6 -20 -4 -31.5t-32 -11.5h-150q-31 0 -51 26q-79 105 -223 105q-81 0 -130 -34.5t-49 -86.5
q0 -42 48.5 -69.5t171.5 -63.5l86 -25q192 -54 275 -132.5t83 -191.5q0 -159 -122.5 -255.5t-323.5 -96.5q-102 0 -186.5 26t-143 71.5t-97.5 101t-61 121.5q-6 20 3.5 32.5t31.5 12.5h168q30 0 49 -29q40 -67 100 -95t148 -28q188 0 188 117q0 48 -50 84t-173 70l-82 22
q-171 47 -260.5 119t-89.5 194q0 150 122.5 248.5t305.5 98.5z" />
    <glyph glyph-name="Scedilla" unicode="&#x15e;" horiz-adv-x="1384" 
d="M1292 395q0 -196 -144.5 -309t-387.5 -119l-27 -86q60 -13 99.5 -57t39.5 -115q0 -83 -58 -137.5t-161 -54.5q-65 0 -125 28q-32 17 -22 54l14 45q11 40 53 24q47 -18 80 -18q28 0 49 16.5t21 36.5q0 29 -25.5 48t-83.5 18h-8q-48 0 -35 47l47 157q-114 14 -208 56
t-155.5 100.5t-100 122t-56.5 131.5q-9 45 37 45h162q31 0 47 -31q110 -211 399 -211q299 0 299 176q0 86 -80 152t-270 129l-74 27q-227 74 -341 173.5t-121 254.5q-4 131 69.5 231t197 151.5t275.5 51.5q211 0 355 -104.5t204 -274.5q8 -22 -1.5 -34.5t-32.5 -12.5h-152
q-32 0 -49 29q-52 86 -139.5 133t-204.5 47q-135 0 -203.5 -49.5t-68.5 -130.5t75.5 -134t270.5 -112l65 -21q254 -78 364.5 -196.5t110.5 -276.5z" />
    <glyph glyph-name="scedilla" unicode="&#x15f;" horiz-adv-x="1105" 
d="M1026 319q0 -152 -110 -246.5t-295 -103.5l-27 -88q60 -13 99.5 -57t39.5 -115q0 -83 -58 -137.5t-161 -54.5q-65 0 -125 28q-32 17 -22 54l14 45q11 40 53 24q46 -18 80 -18q28 0 49 16.5t21 36.5q0 29 -25.5 48t-83.5 18h-8q-48 0 -35 47l47 157q-153 23 -250 108.5
t-137 205.5q-6 20 3.5 32.5t31.5 12.5h168q30 0 49 -29q40 -67 100 -95t148 -28q188 0 188 117q0 48 -50 84t-173 70l-82 22q-171 47 -260.5 119t-89.5 194q0 150 122.5 248.5t305.5 98.5q94 0 174.5 -27t134.5 -71.5t89 -95.5t50 -105q6 -20 -4 -31.5t-32 -11.5h-150
q-31 0 -51 26q-79 105 -223 105q-81 0 -130 -34.5t-49 -86.5q0 -42 48.5 -69.5t171.5 -63.5l86 -25q192 -54 275 -132.5t83 -191.5z" />
    <glyph glyph-name="Scaron" unicode="&#x160;" horiz-adv-x="1384" 
d="M395 1960h119q30 0 49 -25l121 -163h21l110 161q18 27 49 27h119q26 0 33 -14.5t-10 -36.5l-213 -254q-20 -23 -52 -23h-102q-31 0 -51 23l-215 254q-17 22 -10.5 36.5t32.5 14.5zM698 1532q211 0 355 -104.5t204 -274.5q8 -22 -1.5 -34.5t-32.5 -12.5h-152q-32 0 -49 29
q-52 86 -139.5 133t-204.5 47q-135 0 -203.5 -49.5t-68.5 -130.5t75.5 -134t270.5 -112l65 -21q254 -78 364.5 -196.5t110.5 -276.5q0 -202 -152.5 -315t-408.5 -113q-113 0 -211.5 25.5t-167.5 66.5t-122.5 96.5t-85 112t-46.5 115.5q-9 45 37 45h162q31 0 47 -31
q110 -211 399 -211q299 0 299 176q0 86 -80 152t-270 129l-74 27q-227 74 -341 173.5t-121 254.5q-4 131 69.5 231t197 151.5t275.5 51.5z" />
    <glyph glyph-name="scaron" unicode="&#x161;" horiz-adv-x="1105" 
d="M258 1561h119q30 0 49 -25l121 -164h20l111 162q18 27 49 27h119q26 0 32.5 -15t-10.5 -37l-213 -254q-19 -22 -51 -22h-102q-32 0 -51 22l-215 254q-17 22 -10.5 37t32.5 15zM553 1133q94 0 174.5 -27t134.5 -71.5t89 -95.5t50 -105q6 -20 -4 -31.5t-32 -11.5h-150
q-31 0 -51 26q-79 105 -223 105q-81 0 -130 -34.5t-49 -86.5q0 -42 48.5 -69.5t171.5 -63.5l86 -25q192 -54 275 -132.5t83 -191.5q0 -159 -122.5 -255.5t-323.5 -96.5q-102 0 -186.5 26t-143 71.5t-97.5 101t-61 121.5q-6 20 3.5 32.5t31.5 12.5h168q30 0 49 -29
q40 -67 100 -95t148 -28q188 0 188 117q0 48 -50 84t-173 70l-82 22q-171 47 -260.5 119t-89.5 194q0 150 122.5 248.5t305.5 98.5z" />
    <glyph glyph-name="Tcedilla" unicode="&#x162;" horiz-adv-x="1247" 
d="M1214 1458v-137q0 -41 -40 -41h-429l9 -1239q0 -41 -41 -41h-13l-36 -119q60 -13 99.5 -57t39.5 -115q0 -83 -58 -137.5t-161 -54.5q-65 0 -125 28q-33 17 -23 54l15 45q11 40 53 24q46 -18 80 -18q27 0 48 16.5t21 36.5q0 29 -25 48t-83 18h-8q-48 0 -35 47l55 184h-20
q-41 0 -41 41l8 1239h-428q-41 0 -41 41v137q0 41 41 41h1098q40 0 40 -41z" />
    <glyph glyph-name="tcedilla" unicode="&#x163;" horiz-adv-x="751" 
d="M705 1059v-119q0 -41 -41 -41h-177l5 -858q0 -41 -41 -41h-19l-37 -119q60 -13 100 -57t40 -115q0 -83 -58 -137.5t-162 -54.5q-65 0 -125 28q-32 17 -22 54l14 45q11 40 54 24q47 -18 79 -18q28 0 49 16.5t21 36.5q0 29 -25.5 48t-83.5 18h-8q-48 0 -35 47l56 184h-8
q-41 0 -41 41l4 858h-148q-41 0 -41 41v119q0 41 41 41h150l2 377q0 41 41 41h153q41 0 41 -41l2 -377h179q41 0 41 -41z" />
    <glyph glyph-name="Tcaron" unicode="&#x164;" horiz-adv-x="1247" 
d="M674 1632h-103q-31 0 -51 23l-215 254q-17 22 -10 36.5t33 14.5h118q31 0 50 -25l120 -163h21l111 161q18 27 49 27h118q26 0 33 -14.5t-10 -36.5l-213 -254q-20 -23 -51 -23zM1214 1458v-137q0 -41 -40 -41h-429l9 -1239q0 -41 -41 -41h-176q-41 0 -41 41l8 1239h-428
q-41 0 -41 41v137q0 41 41 41h1098q40 0 40 -41z" />
    <glyph glyph-name="tcaron" unicode="&#x165;" horiz-adv-x="751" 
d="M762 1540h98q46 0 37 -45l-49 -268q-6 -37 -43 -37h-72q-42 0 -39 43l25 268q3 39 43 39zM485 1100h179q41 0 41 -41v-119q0 -41 -41 -41h-177l5 -858q0 -41 -41 -41h-170q-41 0 -41 41l4 858h-148q-41 0 -41 41v119q0 41 41 41h150l2 377q0 41 41 41h153q41 0 41 -41z
" />
    <glyph glyph-name="Tbar" unicode="&#x166;" horiz-adv-x="1247" 
d="M885 1864v-99q0 -41 -41 -41h-441q-41 0 -41 41v99q0 41 41 41h441q41 0 41 -41zM1214 1458v-137q0 -41 -40 -41h-429l9 -1239q0 -41 -41 -41h-176q-41 0 -41 41l8 1239h-428q-41 0 -41 41v137q0 41 41 41h1098q40 0 40 -41z" />
    <glyph glyph-name="tbar" unicode="&#x167;" horiz-adv-x="751" 
d="M487 899v-166h113q41 0 41 -41v-131q0 -41 -41 -41h-111l3 -479q0 -41 -41 -41h-170q-41 0 -41 41l2 479h-97q-41 0 -41 41v131q0 41 41 41h99v166h-148q-41 0 -41 41v119q0 41 41 41h150l2 377q0 41 41 41h153q41 0 41 -41l2 -377h179q41 0 41 -41v-119q0 -41 -41 -41
h-177z" />
    <glyph glyph-name="Utilde" unicode="&#x168;" horiz-adv-x="1542" 
d="M672 1935q48 0 88.5 -21.5t63 -47t47.5 -47t44 -21.5q41 0 48 62q6 41 41 41h63q42 0 39 -41q-9 -92 -55 -155t-136 -63q-36 0 -66.5 14t-51 34.5t-39.5 41t-40.5 34.5t-43.5 14q-47 0 -58 -64q-6 -39 -41 -39h-61q-42 0 -39 39q14 219 197 219zM1397 1458l4 -811
q1 -165 -46 -295t-132 -214t-200 -127.5t-253 -43.5q-283 0 -456.5 177.5t-172.5 502.5l4 811q0 41 41 41h160q41 0 41 -41l4 -784q3 -249 102.5 -369.5t282.5 -120.5q372 0 375 490l4 784q0 41 41 41h160q41 0 41 -41z" />
    <glyph glyph-name="utilde" unicode="&#x169;" horiz-adv-x="1210" 
d="M502 1524q39 0 73 -14t56.5 -34.5t41.5 -41t37.5 -34.5t34.5 -14q41 0 48 62q6 41 41 41h63q42 0 39 -41q-9 -92 -55 -154.5t-136 -62.5q-36 0 -66.5 14t-51 34.5t-39.5 40.5t-40.5 34t-43.5 14q-47 0 -58 -63q-6 -39 -40 -39h-62q-42 0 -39 39q14 219 197 219z
M1061 1059l10 -1018q0 -41 -41 -41h-172q-42 0 -39 41l2 109h-16q-111 -183 -311 -183q-164 0 -260 116.5t-95 332.5l4 643q0 41 41 41h154q41 0 41 -41l4 -584q1 -144 49.5 -211t142.5 -67q116 0 184.5 95.5t61.5 282.5l6 484q0 41 41 41h152q41 0 41 -41z" />
    <glyph glyph-name="Umacron" unicode="&#x16a;" horiz-adv-x="1542" 
d="M1034 1876v-98q0 -41 -41 -41h-440q-41 0 -41 41v98q0 41 41 41h440q41 0 41 -41zM1397 1458l4 -811q1 -165 -46 -295t-132 -214t-200 -127.5t-253 -43.5q-283 0 -456.5 177.5t-172.5 502.5l4 811q0 41 41 41h160q41 0 41 -41l4 -784q3 -249 102.5 -369.5t282.5 -120.5
q372 0 375 490l4 784q0 41 41 41h160q41 0 41 -41z" />
    <glyph glyph-name="umacron" unicode="&#x16b;" horiz-adv-x="1210" 
d="M864 1464v-98q0 -41 -41 -41h-440q-41 0 -41 41v98q0 41 41 41h440q41 0 41 -41zM1061 1059l10 -1018q0 -41 -41 -41h-172q-42 0 -39 41l2 109h-16q-111 -183 -311 -183q-164 0 -260 116.5t-95 332.5l4 643q0 41 41 41h154q41 0 41 -41l4 -584q1 -144 49.5 -211
t142.5 -67q116 0 184.5 95.5t61.5 282.5l6 484q0 41 41 41h152q41 0 41 -41z" />
    <glyph glyph-name="Uring" unicode="&#x16e;" horiz-adv-x="1542" 
d="M772 2001q88 0 147.5 -57.5t59.5 -149.5t-59.5 -150.5t-147.5 -58.5t-148.5 58.5t-60.5 150.5t60.5 149.5t148.5 57.5zM772 1878q-36 0 -60 -23t-24 -61t24 -61t60 -23q35 0 59.5 23.5t24.5 60.5t-24.5 60.5t-59.5 23.5zM1397 1458l4 -811q1 -165 -46 -295t-132 -214
t-200 -127.5t-253 -43.5q-283 0 -456.5 177.5t-172.5 502.5l4 811q0 41 41 41h160q41 0 41 -41l4 -784q3 -249 102.5 -369.5t282.5 -120.5q372 0 375 490l4 784q0 41 41 41h160q41 0 41 -41z" />
    <glyph glyph-name="uring" unicode="&#x16f;" horiz-adv-x="1210" 
d="M602 1589q88 0 147.5 -57.5t59.5 -149.5t-59.5 -150t-147.5 -58t-148.5 58t-60.5 150t60.5 149.5t148.5 57.5zM602 1466q-36 0 -60 -23t-24 -61t24 -61t60 -23q35 0 59.5 23.5t24.5 60.5t-24.5 60.5t-59.5 23.5zM1061 1059l10 -1018q0 -41 -41 -41h-172q-42 0 -39 41
l2 109h-16q-111 -183 -311 -183q-164 0 -260 116.5t-95 332.5l4 643q0 41 41 41h154q41 0 41 -41l4 -584q1 -144 49.5 -211t142.5 -67q116 0 184.5 95.5t61.5 282.5l6 484q0 41 41 41h152q41 0 41 -41z" />
    <glyph glyph-name="Uhungarumlaut" unicode="&#x170;" horiz-adv-x="1542" 
d="M907 1929l-202 -254q-16 -24 -50 -24h-67q-25 0 -33 13.5t4 35.5l133 250q17 28 49 28h144q26 0 32.5 -14.5t-10.5 -34.5zM1247 1929l-203 -254q-16 -24 -49 -24h-67q-25 0 -33 13.5t4 35.5l133 250q17 28 49 28h144q26 0 32.5 -14.5t-10.5 -34.5zM1397 1458l4 -811
q1 -165 -46 -295t-132 -214t-200 -127.5t-253 -43.5q-283 0 -456.5 177.5t-172.5 502.5l4 811q0 41 41 41h160q41 0 41 -41l4 -784q3 -249 102.5 -369.5t282.5 -120.5q372 0 375 490l4 784q0 41 41 41h160q41 0 41 -41z" />
    <glyph glyph-name="uhungarumlaut" unicode="&#x171;" horiz-adv-x="1210" 
d="M737 1518l-202 -254q-17 -25 -50 -25h-67q-25 0 -33 13.5t4 35.5l133 250q17 29 49 29h144q26 0 32.5 -14.5t-10.5 -34.5zM1077 1518l-203 -254q-17 -25 -49 -25h-67q-25 0 -33 13.5t4 35.5l133 250q17 29 49 29h144q26 0 32.5 -14.5t-10.5 -34.5zM1061 1059l10 -1018
q0 -41 -41 -41h-172q-42 0 -39 41l2 109h-16q-111 -183 -311 -183q-164 0 -260 116.5t-95 332.5l4 643q0 41 41 41h154q41 0 41 -41l4 -584q1 -144 49.5 -211t142.5 -67q116 0 184.5 95.5t61.5 282.5l6 484q0 41 41 41h152q41 0 41 -41z" />
    <glyph glyph-name="Uogonek" unicode="&#x172;" horiz-adv-x="1542" 
d="M1024 10q-190 -118 -190 -209q0 -63 96 -63q46 0 90 8q45 6 45 -37v-84q0 -39 -35 -45q-58 -12 -108 -12q-121 0 -188.5 61t-67.5 164q0 88 57 176q-264 14 -423.5 190t-158.5 488l4 811q0 41 41 41h160q41 0 41 -41l4 -784q3 -249 102.5 -369.5t282.5 -120.5
q372 0 375 490l4 784q0 41 41 41h160q41 0 41 -41l4 -811q1 -245 -99 -407t-278 -230z" />
    <glyph glyph-name="uogonek" unicode="&#x173;" horiz-adv-x="1210" 
d="M827 -242q0 -63 97 -63q46 0 90 8q45 6 45 -37v-84q0 -39 -35 -45q-59 -12 -109 -12q-121 0 -188.5 61t-67.5 164q0 149 158 285l4 115h-16q-111 -183 -311 -183q-164 0 -260 116.5t-95 332.5l4 643q0 41 41 41h154q41 0 41 -41l4 -584q1 -144 49.5 -211t142.5 -67
q116 0 184.5 95.5t61.5 282.5l6 484q0 41 41 41h152q41 0 41 -41l10 -1026q0 -30 -61 -70q-183 -120 -183 -205z" />
    <glyph glyph-name="Wcircumflex" unicode="&#x174;" horiz-adv-x="2041" 
d="M1010 1835l-111 -162q-17 -26 -49 -26h-119q-26 0 -32.5 14.5t10.5 36.5l213 254q19 22 51 22h102q32 0 51 -22l215 -254q17 -22 10.5 -36.5t-32.5 -14.5h-119q-31 0 -49 24l-121 164h-20zM1800 1499h166q22 0 31.5 -12.5t3.5 -32.5l-385 -1419q-9 -35 -47 -35h-205
q-36 0 -45 35l-287 1112h-22l-285 -1112q-9 -35 -45 -35h-205q-38 0 -47 35l-387 1419q-6 20 3.5 32.5t31.5 12.5h166q35 0 47 -35l284 -1061h17l280 1061q12 35 48 35h206q36 0 45 -35l279 -1061h18l287 1061q9 35 47 35z" />
    <glyph glyph-name="wcircumflex" unicode="&#x175;" horiz-adv-x="1611" 
d="M793 1423l-111 -161q-18 -27 -49 -27h-119q-26 0 -32.5 14.5t10.5 36.5l213 254q20 23 51 23h102q31 0 51 -23l215 -254q17 -22 10.5 -36.5t-32.5 -14.5h-119q-30 0 -49 25l-121 163h-20zM1380 1100h144q22 0 31.5 -12.5t3.5 -32.5l-269 -1020q-12 -35 -47 -35h-229
q-36 0 -45 35l-158 608h-14l-154 -608q-9 -35 -45 -35h-233q-37 0 -46 35l-268 1020q-12 45 35 45h150q36 0 45 -35l194 -807h27l198 807q9 35 45 35h129q37 0 46 -35l194 -807h25l196 807q9 35 45 35z" />
    <glyph glyph-name="Ycircumflex" unicode="&#x176;" horiz-adv-x="1255" 
d="M612 1835l-110 -162q-17 -26 -49 -26h-119q-26 0 -33 14.5t10 36.5l213 254q19 22 51 22h103q32 0 51 -22l215 -254q17 -22 10.5 -36.5t-32.5 -14.5h-119q-31 0 -49 24l-121 164h-21zM754 604l6 -563q0 -41 -41 -41h-176q-41 0 -41 41l4 565l-459 844q-12 22 -4 35.5
t33 13.5h178q32 0 49 -29l324 -612h16l320 612q17 29 49 29h168q25 0 32.5 -13.5t-4.5 -35.5z" />
    <glyph glyph-name="ycircumflex" unicode="&#x177;" horiz-adv-x="1136" 
d="M559 1423l-110 -161q-18 -27 -50 -27h-118q-26 0 -33 14.5t10 36.5l213 254q20 23 51 23h103q31 0 51 -23l215 -254q17 -22 10 -36.5t-33 -14.5h-118q-31 0 -50 25l-120 163h-21zM901 1100h148q48 0 32 -47l-503 -1471q-11 -33 -48 -33h-174q-22 0 -30.5 13t-1.5 35
l125 342l-394 1114q-7 22 2 34.5t31 12.5h150q36 0 45 -33l268 -797h16l287 797q11 33 47 33z" />
    <glyph glyph-name="Ydieresis" unicode="&#x178;" horiz-adv-x="1255" 
d="M575 1913v-154q0 -41 -40 -41h-127q-41 0 -41 41v154q0 41 41 41h127q40 0 40 -41zM903 1913v-154q0 -41 -41 -41h-127q-41 0 -41 41v154q0 41 41 41h127q41 0 41 -41zM754 604l6 -563q0 -41 -41 -41h-176q-41 0 -41 41l4 565l-459 844q-12 22 -4 35.5t33 13.5h178
q32 0 49 -29l324 -612h16l320 612q17 29 49 29h168q25 0 32.5 -13.5t-4.5 -35.5z" />
    <glyph glyph-name="Zacute" unicode="&#x179;" horiz-adv-x="1376" 
d="M928 1911l-203 -254q-17 -25 -49 -25h-68q-25 0 -32.5 13.5t4.5 35.5l133 250q17 29 49 29h143q26 0 33 -14.5t-10 -34.5zM418 221h778q41 0 41 -41v-139q0 -41 -41 -41h-1053q-41 0 -41 41v115q0 33 27 67l770 1039v18h-711q-41 0 -41 41v137q0 41 41 41h988
q41 0 41 -41v-108q0 -39 -25 -68l-774 -1046v-15z" />
    <glyph glyph-name="zacute" unicode="&#x17a;" horiz-adv-x="999" 
d="M745 1513l-202 -253q-17 -25 -49 -25h-68q-25 0 -33 13.5t4 35.5l133 250q17 29 50 29h143q26 0 32.5 -15t-10.5 -35zM909 1059v-127v-2q0 -10 -22 -41l-525 -676v-12h519q41 0 41 -41v-119q0 -41 -41 -41h-762q-41 0 -41 41v127q10 27 20 41l543 676v14h-504
q-41 0 -41 41v119q0 41 41 41h731q41 0 41 -41z" />
    <glyph glyph-name="Zdotaccent" unicode="&#x17b;" horiz-adv-x="1376" 
d="M784 1896v-153q0 -41 -41 -41h-153q-41 0 -41 41v153q0 41 41 41h153q41 0 41 -41zM418 221h778q41 0 41 -41v-139q0 -41 -41 -41h-1053q-41 0 -41 41v115q0 33 27 67l770 1039v18h-711q-41 0 -41 41v137q0 41 41 41h988q41 0 41 -41v-108q0 -39 -25 -68l-774 -1046v-15z
" />
    <glyph glyph-name="zdotaccent" unicode="&#x17c;" horiz-adv-x="999" 
d="M600 1499v-153q0 -41 -41 -41h-153q-41 0 -41 41v153q0 41 41 41h153q41 0 41 -41zM909 1059v-127v-2q0 -10 -22 -41l-525 -676v-12h519q41 0 41 -41v-119q0 -41 -41 -41h-762q-41 0 -41 41v127q10 27 20 41l543 676v14h-504q-41 0 -41 41v119q0 41 41 41h731
q41 0 41 -41z" />
    <glyph glyph-name="Zcaron" unicode="&#x17d;" horiz-adv-x="1376" 
d="M715 1632h-103q-31 0 -51 23l-215 254q-17 22 -10 36.5t33 14.5h118q31 0 50 -25l120 -163h21l110 161q18 27 50 27h118q26 0 33 -14.5t-10 -36.5l-213 -254q-20 -23 -51 -23zM418 221h778q41 0 41 -41v-139q0 -41 -41 -41h-1053q-41 0 -41 41v115q0 33 27 67l770 1039
v18h-711q-41 0 -41 41v137q0 41 41 41h988q41 0 41 -41v-108q0 -39 -25 -68l-774 -1046v-15z" />
    <glyph glyph-name="zcaron" unicode="&#x17e;" horiz-adv-x="999" 
d="M184 1561h119q30 0 49 -25l121 -164h21l110 162q18 27 49 27h119q26 0 33 -15t-10 -37l-213 -254q-19 -22 -52 -22h-102q-32 0 -51 22l-215 254q-17 22 -10.5 37t32.5 15zM909 1059v-127v-2q0 -10 -22 -41l-525 -676v-12h519q41 0 41 -41v-119q0 -41 -41 -41h-762
q-41 0 -41 41v127q10 27 20 41l543 676v14h-504q-41 0 -41 41v119q0 41 41 41h731q41 0 41 -41z" />
    <glyph glyph-name="Acaron" unicode="&#x1cd;" horiz-adv-x="1419" 
d="M758 1634h-103q-31 0 -51 23l-215 254q-17 22 -10 36.5t33 14.5h118q31 0 50 -25l120 -163h21l110 161q18 27 50 27h118q26 0 33 -14.5t-10 -36.5l-213 -254q-20 -23 -51 -23zM987 436h-551l-141 -403q-11 -33 -47 -33h-168q-23 0 -32.5 12.5t-2.5 34.5l522 1419
q11 33 47 33h195q36 0 47 -33l522 -1419q7 -22 -2.5 -34.5t-32.5 -12.5h-169q-37 0 -48 33zM911 655l-192 549h-12l-193 -549h397z" />
    <glyph glyph-name="acaron" unicode="&#x1ce;" horiz-adv-x="1179" 
d="M285 1561h118q31 0 50 -25l120 -164h21l111 162q18 27 49 27h118q26 0 33 -15t-10 -37l-213 -254q-19 -22 -51 -22h-103q-32 0 -51 22l-215 254q-17 22 -10 37t33 15zM602 1133q197 0 313.5 -104t116.5 -288l8 -700q0 -41 -41 -41h-161q-41 0 -41 41l2 125h-17
q-57 -87 -153.5 -138t-216.5 -51q-150 0 -241 82.5t-91 229.5q0 171 138.5 259t445.5 124q135 15 135 108q0 65 -58.5 106.5t-154.5 41.5q-162 0 -213 -123q-14 -33 -47 -33h-146q-22 0 -32.5 10t-6.5 27q39 149 158 236.5t303 87.5zM797 516l-11 6q-59 -20 -143 -33
q-167 -27 -247.5 -68t-80.5 -118q0 -55 39.5 -86t114.5 -31q73 0 137.5 26t106.5 67t65 89t21 93z" />
    <glyph glyph-name="Icaron" unicode="&#x1cf;" horiz-adv-x="788" 
d="M96 1962h119q30 0 49 -25l121 -163h21l110 161q18 27 49 27h119q26 0 33 -14.5t-10 -36.5l-213 -254q-20 -23 -52 -23h-102q-31 0 -51 23l-215 254q-17 22 -10.5 36.5t32.5 14.5zM514 1458l10 -1417q0 -41 -41 -41h-176q-41 0 -41 41l6 1417q0 41 41 41h160q41 0 41 -41z
" />
    <glyph glyph-name="icaron" unicode="&#x1d0;" horiz-adv-x="571" 
d="M-10 1561h119q30 0 49 -25l121 -164h20l111 162q18 27 49 27h119q26 0 32.5 -15t-10.5 -37l-213 -254q-19 -22 -51 -22h-103q-32 0 -51 22l-215 254q-17 22 -10 37t33 15zM403 1059l9 -1018q0 -41 -41 -41h-170q-41 0 -41 41l8 1018q0 41 41 41h153q41 0 41 -41z" />
    <glyph glyph-name="Ocaron" unicode="&#x1d1;" horiz-adv-x="1634" 
d="M520 1972h119q31 0 49 -24l121 -164h20l111 162q17 26 49 26h119q26 0 32.5 -14.5t-10.5 -36.5l-212 -254q-19 -22 -52 -22h-102q-32 0 -51 22l-215 254q-17 22 -10.5 36.5t32.5 14.5zM829 1532q152 0 284 -55t226.5 -153.5t148.5 -240.5t54 -309q0 -229 -96 -414
t-264.5 -289t-374.5 -104q-152 0 -284.5 58t-228 160t-150 248.5t-54.5 316.5q0 226 97 405.5t265.5 278t376.5 98.5zM811 1317q-102 0 -188.5 -36t-151 -104t-101 -173.5t-36.5 -237.5q0 -268 137 -425t352 -157q101 0 188 38.5t151 109.5t101 179t37 241
q0 266 -136.5 415.5t-352.5 149.5z" />
    <glyph glyph-name="ocaron" unicode="&#x1d2;" horiz-adv-x="1226" 
d="M315 1561h119q30 0 49 -25l121 -164h21l110 162q18 27 49 27h119q26 0 33 -15t-10 -37l-213 -254q-19 -22 -51 -22h-103q-32 0 -51 22l-215 254q-17 22 -10.5 37t32.5 15zM623 1133q150 0 269.5 -71t188 -201.5t68.5 -297.5q0 -169 -71.5 -306t-196 -213.5t-277.5 -76.5
q-227 0 -376.5 163t-149.5 415q0 128 41.5 237.5t114 186.5t173.5 120.5t216 43.5zM596 922q-124 0 -201.5 -96t-77.5 -259q0 -173 90 -279t222 -106q123 0 200.5 97t77.5 258q0 176 -88.5 280.5t-222.5 104.5z" />
    <glyph glyph-name="Ucaron" unicode="&#x1d3;" horiz-adv-x="1542" 
d="M475 1972h119q31 0 49 -24l121 -164h20l111 162q17 26 49 26h119q26 0 32.5 -14.5t-10.5 -36.5l-213 -254q-19 -22 -51 -22h-102q-32 0 -51 22l-215 254q-17 22 -10.5 36.5t32.5 14.5zM1397 1458l4 -811q1 -165 -46 -295t-132 -214t-200 -127.5t-253 -43.5
q-283 0 -456.5 177.5t-172.5 502.5l4 811q0 41 41 41h160q41 0 41 -41l4 -784q3 -249 102.5 -369.5t282.5 -120.5q372 0 375 490l4 784q0 41 41 41h160q41 0 41 -41z" />
    <glyph glyph-name="ucaron" unicode="&#x1d4;" horiz-adv-x="1210" 
d="M305 1561h119q30 0 49 -25l121 -164h20l111 162q18 27 49 27h119q26 0 32.5 -15t-10.5 -37l-213 -254q-19 -22 -51 -22h-102q-32 0 -51 22l-215 254q-17 22 -10.5 37t32.5 15zM1061 1059l10 -1018q0 -41 -41 -41h-172q-42 0 -39 41l2 109h-16q-111 -183 -311 -183
q-164 0 -260 116.5t-95 332.5l4 643q0 41 41 41h154q41 0 41 -41l4 -584q1 -144 49.5 -211t142.5 -67q116 0 184.5 95.5t61.5 282.5l6 484q0 41 41 41h152q41 0 41 -41z" />
    <glyph glyph-name="Gcaron" unicode="&#x1e6;" horiz-adv-x="1630" 
d="M864 1632h-102q-31 0 -51 23l-215 254q-17 22 -10.5 36.5t32.5 14.5h119q30 0 49 -25l121 -163h20l111 161q18 27 49 27h119q26 0 32.5 -14.5t-10.5 -36.5l-213 -254q-20 -23 -51 -23zM934 748h553q45 0 45 -52q-5 -151 -57 -284t-143.5 -232t-227 -156t-297.5 -57
q-205 0 -366 99t-251 277.5t-90 406.5q0 170 56 316t153 248t231.5 160t288.5 58q218 0 389.5 -115t243.5 -307q9 -22 0 -34.5t-32 -12.5l-152 -4q-32 0 -49 28q-73 110 -181 170t-237 60q-100 0 -184.5 -36t-148 -104t-99 -173.5t-35.5 -237.5q0 -270 137.5 -426
t362.5 -156q156 0 273 91t159 253h-342q-41 0 -41 41v138q0 41 41 41z" />
    <glyph glyph-name="gcaron" unicode="&#x1e7;" horiz-adv-x="1265" 
d="M672 1233h-103q-32 0 -51 22l-215 254q-17 22 -10 37t33 15h118q31 0 50 -25l120 -164h21l110 162q18 27 50 27h118q26 0 33 -15t-10 -37l-213 -254q-19 -22 -51 -22zM1114 1059l12 -893q3 -163 -35 -289t-109.5 -203.5t-166.5 -117t-211 -39.5q-154 0 -270 69t-180 201
q-10 22 -1.5 35.5t31.5 13.5h156q28 0 49 -24q69 -82 211 -82q62 0 110 17.5t85.5 57t56 110t16.5 169.5v27h-12q-52 -60 -112 -85.5t-148 -25.5q-231 0 -374.5 156t-143.5 411q0 242 126.5 404t323.5 162q103 0 190 -48t140 -137h16l3 111q3 41 43 41h153q41 0 41 -41z
M594 213q131 0 214.5 82t80.5 240q3 178 -80.5 282.5t-212.5 104.5q-124 0 -201.5 -100.5t-77.5 -274.5q0 -162 71 -248t206 -86z" />
    <glyph glyph-name="Scommaaccent" unicode="&#x218;" horiz-adv-x="1384" 
d="M698 1532q211 0 355 -104.5t204 -274.5q8 -22 -1.5 -34.5t-32.5 -12.5h-152q-32 0 -49 29q-52 86 -139.5 133t-204.5 47q-135 0 -203.5 -49.5t-68.5 -130.5t75.5 -134t270.5 -112l65 -21q254 -78 364.5 -196.5t110.5 -276.5q0 -202 -152.5 -315t-408.5 -113
q-113 0 -211.5 25.5t-167.5 66.5t-122.5 96.5t-85 112t-46.5 115.5q-9 45 37 45h162q31 0 47 -31q110 -211 399 -211q299 0 299 176q0 86 -80 152t-270 129l-74 27q-227 74 -341 173.5t-121 254.5q-4 131 69.5 231t197 151.5t275.5 51.5zM799 -178v-84q0 -206 -127 -297
q-25 -19 -56 -4q-38 20 -8 57q39 47 42 94.5t-36 79.5q-28 22 -28 49v105q0 41 41 41h131q41 0 41 -41z" />
    <glyph glyph-name="scommaaccent" unicode="&#x219;" horiz-adv-x="1105" 
d="M553 1133q94 0 174.5 -27t134.5 -71.5t89 -95.5t50 -105q6 -20 -4 -31.5t-32 -11.5h-150q-31 0 -51 26q-79 105 -223 105q-81 0 -130 -34.5t-49 -86.5q0 -42 48.5 -69.5t171.5 -63.5l86 -25q192 -54 275 -132.5t83 -191.5q0 -159 -122.5 -255.5t-323.5 -96.5
q-102 0 -186.5 26t-143 71.5t-97.5 101t-61 121.5q-6 20 3.5 32.5t31.5 12.5h168q30 0 49 -29q40 -67 100 -95t148 -28q188 0 188 117q0 48 -50 84t-173 70l-82 22q-171 47 -260.5 119t-89.5 194q0 150 122.5 248.5t305.5 98.5zM659 -178v-84q0 -206 -127 -297
q-25 -19 -55 -4q-38 20 -8 57q39 47 42 94.5t-36 79.5q-29 23 -29 49v105q0 41 41 41h131q41 0 41 -41z" />
    <glyph glyph-name="Tcommaaccent" unicode="&#x21a;" horiz-adv-x="1247" 
d="M1214 1458v-137q0 -41 -40 -41h-429l9 -1239q0 -41 -41 -41h-176q-41 0 -41 41l8 1239h-428q-41 0 -41 41v137q0 41 41 41h1098q40 0 40 -41zM518 -283v105q0 41 41 41h131q41 0 41 -41v-84q0 -206 -127 -297q-25 -19 -55 -4q-38 20 -8 57q39 47 42 94.5t-36 79.5
q-29 23 -29 49z" />
    <glyph glyph-name="tcommaaccent" unicode="&#x21b;" horiz-adv-x="751" 
d="M705 1059v-119q0 -41 -41 -41h-177l5 -858q0 -41 -41 -41h-170q-41 0 -41 41l4 858h-148q-41 0 -41 41v119q0 41 41 41h150l2 377q0 41 41 41h153q41 0 41 -41l2 -377h179q41 0 41 -41zM250 -283v105q0 41 41 41h131q41 0 41 -41v-84q0 -206 -127 -297q-25 -19 -55 -4
q-39 20 -9 57q39 47 42.5 94.5t-35.5 79.5q-29 23 -29 49z" />
    <glyph glyph-name="Ecedilla" unicode="&#x228;" horiz-adv-x="1239" 
d="M393 1280l2 -389h627q41 0 41 -41v-137q0 -41 -41 -41h-625l2 -453h709q41 0 41 -41v-137q0 -41 -41 -41h-399l-37 -119q60 -13 99.5 -57t39.5 -115q0 -83 -58 -137.5t-161 -54.5q-65 0 -125 28q-33 17 -23 54l15 45q11 40 53 24q46 -18 80 -18q28 0 49 16.5t21 36.5
q0 29 -25.5 48t-83.5 18h-8q-48 0 -35 47l55 184h-383q-41 0 -41 41l9 1417q0 41 40 41h918q41 0 41 -41v-137q0 -41 -41 -41h-715z" />
    <glyph glyph-name="ecedilla" unicode="&#x229;" horiz-adv-x="1175" 
d="M618 1135q124 0 220 -46.5t154 -128.5t85.5 -190t20.5 -235q-3 -39 -43 -39h-738q7 -160 90 -238t214 -78q73 0 124.5 27.5t90.5 89.5q17 29 49 29h145q23 0 32.5 -12.5t0.5 -34.5q-56 -137 -162.5 -216.5t-245.5 -93.5l-28 -88q60 -13 99.5 -57t39.5 -115
q0 -83 -58 -137.5t-161 -54.5q-65 0 -125 28q-33 17 -23 54l15 45q11 40 53 24q47 -18 80 -18q27 0 48 16.5t21 36.5q0 29 -25 48t-83 18h-8q-48 0 -35 47l47 157q-195 31 -314.5 184.5t-119.5 385.5q0 262 149 427t391 165zM330 684h522q-2 100 -68.5 169t-185.5 69
q-211 0 -268 -238z" />
    <glyph glyph-name="dotlessj" unicode="&#x237;" horiz-adv-x="620" 
d="M434 1059l8 -1059q1 -221 -110.5 -331.5t-343.5 -119.5q-43 0 -43 41v131q0 40 41 43q110 9 156 58.5t48 157.5l9 1079q0 41 41 41h153q41 0 41 -41z" />
    <glyph glyph-name="circumflex" unicode="&#x2c6;" horiz-adv-x="1173" 
d="M881 1235h-119q-30 0 -49 25l-121 163h-21l-110 -161q-18 -27 -49 -27h-119q-26 0 -33 14.5t10 36.5l213 254q20 23 52 23h102q31 0 51 -23l215 -254q17 -22 10.5 -36.5t-32.5 -14.5z" />
    <glyph glyph-name="caron" unicode="&#x2c7;" horiz-adv-x="1173" 
d="M293 1516h119q30 0 49 -25l121 -164h20l111 162q18 27 49 27h119q26 0 32.5 -15t-10.5 -37l-213 -254q-19 -22 -51 -22h-102q-33 0 -52 22l-215 254q-17 22 -10 37t33 15z" />
    <glyph glyph-name="breve" unicode="&#x2d8;" horiz-adv-x="1101" 
d="M852 1485q0 -147 -82 -221t-221 -74q-137 0 -218 74t-81 221q0 33 41 33h92q41 0 41 -33q0 -70 35.5 -106t89.5 -36q57 0 92 36t35 106q0 33 41 33h94q41 0 41 -33z" />
    <glyph glyph-name="dotaccent" unicode="&#x2d9;" horiz-adv-x="735" 
d="M485 1499v-153q0 -41 -41 -41h-153q-41 0 -41 41v153q0 41 41 41h153q41 0 41 -41z" />
    <glyph glyph-name="ring" unicode="&#x2da;" horiz-adv-x="917" 
d="M459 1589q88 0 147.5 -57.5t59.5 -149.5t-59.5 -150t-147.5 -58t-148.5 58t-60.5 150t60.5 149.5t148.5 57.5zM459 1466q-36 0 -60 -23t-24 -61t24 -61t60 -23q35 0 59.5 23.5t24.5 60.5t-24.5 60.5t-59.5 23.5z" />
    <glyph glyph-name="ogonek" unicode="&#x2db;" horiz-adv-x="1286" 
d="M772 117l45 -82q18 -34 -16 -55q-209 -130 -209 -222q0 -63 96 -63q46 0 90 8q45 6 45 -37v-84q0 -39 -35 -45q-58 -12 -108 -12q-121 0 -188.5 61t-67.5 164q0 201 291 381q37 21 57 -14z" />
    <glyph glyph-name="tilde" unicode="&#x2dc;" horiz-adv-x="1116" 
d="M440 1524q39 0 73 -14t57 -34.5t42 -41t37.5 -34.5t34.5 -14q40 0 47 62q6 41 41 41h64q41 0 38 -41q-9 -92 -54.5 -154.5t-135.5 -62.5q-36 0 -66.5 14t-51.5 34.5t-40 40.5t-40.5 34t-43.5 14q-46 0 -57 -63q-6 -39 -41 -39h-61q-42 0 -39 39q14 219 196 219z" />
    <glyph glyph-name="hungarumlaut" unicode="&#x2dd;" horiz-adv-x="1232" 
d="M594 1513l-203 -253q-17 -25 -49 -25h-68q-25 0 -32.5 13.5t4.5 35.5l133 250q17 29 49 29h143q26 0 33 -15t-10 -35zM932 1513l-203 -253q-17 -25 -49 -25h-68q-25 0 -32.5 13.5t4.5 35.5l135 250q17 29 49 29h141q26 0 33 -15t-10 -35z" />
    <glyph glyph-name="acutecomb" unicode="&#x301;" horiz-adv-x="0" 
d="M614 1513l-202 -253q-17 -25 -50 -25h-67q-25 0 -33 13.5t4 35.5l133 250q17 29 50 29h143q26 0 32.5 -15t-10.5 -35z" />
    <glyph glyph-name="dotbelowcomb" unicode="&#x323;" horiz-adv-x="0" 
d="M449 -176v-164q0 -41 -41 -41h-162q-41 0 -41 41v164q0 41 41 41h162q41 0 41 -41z" />
    <glyph glyph-name="commaaccent" unicode="&#x326;" horiz-adv-x="0" 
d="M520 -178v-84q0 -206 -127 -297q-25 -19 -55 -4q-38 20 -8 57q39 47 42 94.5t-36 79.5q-29 23 -29 49v105q0 41 41 41h131q41 0 41 -41z" />
    <glyph glyph-name="Iocy" unicode="&#x401;" horiz-adv-x="1239" 
d="M592 1903v-154q0 -41 -41 -41h-127q-41 0 -41 41v154q0 41 41 41h127q41 0 41 -41zM920 1903v-154q0 -41 -41 -41h-127q-41 0 -41 41v154q0 41 41 41h127q41 0 41 -41zM393 1280l2 -389h627q41 0 41 -41v-137q0 -41 -41 -41h-625l2 -453h709q41 0 41 -41v-137
q0 -41 -41 -41h-926q-41 0 -41 41l9 1417q0 41 40 41h918q41 0 41 -41v-137q0 -41 -41 -41h-715z" />
    <glyph glyph-name="Gjecy" unicode="&#x403;" horiz-adv-x="1120" 
d="M864 1911l-202 -254q-17 -25 -50 -25h-67q-25 0 -33 13.5t4 35.5l133 250q17 29 49 29h144q26 0 32.5 -14.5t-10.5 -34.5zM1087 1458v-137q0 -41 -40 -41h-654l8 -1239q0 -41 -41 -41h-176q-41 0 -41 41l7 1417q0 41 40 41h857q40 0 40 -41z" />
    <glyph glyph-name="Ecy" unicode="&#x404;" horiz-adv-x="1568" 
d="M1278 469l152 -2q23 0 32.5 -12.5t1.5 -32.5q-30 -87 -84 -164.5t-133 -144.5t-192 -106.5t-244 -39.5q-213 0 -377.5 99t-254 275.5t-89.5 403.5q0 172 56 319.5t152.5 249.5t230.5 160t286 58q225 0 396.5 -117t244.5 -325q7 -22 -2.5 -35t-32.5 -13l-151 -2
q-32 0 -49 29q-70 120 -179 184t-241 64q-186 0 -312.5 -119.5t-150.5 -339.5h629q41 0 41 -41v-115q0 -40 -41 -40h-627q26 -224 159.5 -351t334.5 -127q275 0 395 254q15 31 49 31z" />
    <glyph glyph-name="Dzecy" unicode="&#x405;" horiz-adv-x="1384" 
d="M698 1532q211 0 355 -104.5t204 -274.5q8 -22 -1.5 -34.5t-32.5 -12.5h-152q-32 0 -49 29q-52 86 -139.5 133t-204.5 47q-135 0 -203.5 -49.5t-68.5 -130.5t75.5 -134t270.5 -112l65 -21q254 -78 364.5 -196.5t110.5 -276.5q0 -202 -152.5 -315t-408.5 -113
q-113 0 -211.5 25.5t-167.5 66.5t-122.5 96.5t-85 112t-46.5 115.5q-9 45 37 45h162q31 0 47 -31q110 -211 399 -211q299 0 299 176q0 86 -80 152t-270 129l-74 27q-227 74 -341 173.5t-121 254.5q-4 131 69.5 231t197 151.5t275.5 51.5z" />
    <glyph glyph-name="Icy" unicode="&#x406;" horiz-adv-x="788" 
d="M514 1458l10 -1417q0 -41 -41 -41h-176q-41 0 -41 41l6 1417q0 41 41 41h160q41 0 41 -41z" />
    <glyph glyph-name="Yicy" unicode="&#x407;" horiz-adv-x="788" 
d="M342 1903v-154q0 -41 -41 -41h-127q-41 0 -41 41v154q0 41 41 41h127q41 0 41 -41zM670 1903v-154q0 -41 -41 -41h-127q-41 0 -41 41v154q0 41 41 41h127q41 0 41 -41zM514 1458l10 -1417q0 -41 -41 -41h-176q-41 0 -41 41l6 1417q0 41 41 41h160q41 0 41 -41z" />
    <glyph glyph-name="Jecy" unicode="&#x408;" horiz-adv-x="1040" 
d="M770 1460l6 -764q1 -158 -25 -274t-76 -195.5t-130.5 -128t-180 -71t-233.5 -25.5q-41 0 -41 41v133q0 41 41 41q220 7 305.5 108t87.5 353l4 782q0 41 41 41h160q41 0 41 -41z" />
    <glyph glyph-name="Kjecy" unicode="&#x40c;" horiz-adv-x="1458" 
d="M535 1913l-203 -254q-17 -25 -49 -25h-68q-25 0 -33 13.5t4 35.5l133 250q17 29 50 29h143q26 0 33 -14.5t-10 -34.5zM641 776l752 -725q20 -20 14.5 -35.5t-33.5 -15.5h-233q-29 0 -49 20l-658 627h-37l4 -606q0 -41 -41 -41h-176q-41 0 -41 41l7 1417q0 41 40 41h160
q41 0 41 -41l4 -588h39l664 609q23 20 51 20h215q29 0 34.5 -15.5t-14.5 -35.5z" />
    <glyph glyph-name="Ushortcy" unicode="&#x40e;" horiz-adv-x="1298" 
d="M635 1587q-137 0 -218 74t-81 221q0 33 41 33h92q41 0 41 -33q0 -70 35 -105.5t90 -35.5q57 0 92 35.5t35 105.5q0 33 41 33h94q41 0 41 -33q0 -147 -82 -221t-221 -74zM1061 1499h164q51 0 32 -47l-475 -1073q-62 -141 -148 -226.5t-184.5 -119t-228.5 -33.5h-84
q-41 0 -41 41v131q0 41 41 41h39q121 0 205.5 40t142.5 140l-481 1059q-11 20 -2.5 33.5t33.5 13.5h162q34 0 49 -31l354 -798h14l359 798q16 31 49 31z" />
    <glyph glyph-name="Acy" unicode="&#x410;" horiz-adv-x="1419" 
d="M987 436h-551l-141 -403q-11 -33 -47 -33h-168q-23 0 -32.5 12.5t-2.5 34.5l522 1419q11 33 47 33h195q36 0 47 -33l522 -1419q7 -22 -2.5 -34.5t-32.5 -12.5h-169q-37 0 -48 33zM911 655l-192 549h-12l-193 -549h397z" />
    <glyph glyph-name="Becy" unicode="&#x411;" horiz-adv-x="1333" 
d="M395 870h350q222 0 359 -119t137 -315t-137 -316t-359 -120h-563q-41 0 -41 41l9 1417q0 41 40 41h875q41 0 41 -41v-137q0 -41 -41 -41h-672zM399 213h332q133 0 200.5 58t67.5 165q0 106 -76 162.5t-227 56.5h-299z" />
    <glyph glyph-name="Vecy" unicode="&#x412;" horiz-adv-x="1417" 
d="M1126 791q97 -55 148 -142.5t51 -195.5q0 -193 -135.5 -323t-355.5 -130h-652q-41 0 -41 41l9 1417q0 41 40 41h582q214 0 343.5 -114.5t129.5 -294.5t-119 -299zM393 1286l2 -416h389q104 0 162 53t58 150q0 99 -69.5 156t-191.5 57h-350zM399 213h416q131 0 199.5 56.5
t68.5 158.5q0 106 -78 166.5t-223 60.5h-385z" />
    <glyph glyph-name="Gecy" unicode="&#x413;" horiz-adv-x="1120" 
d="M1087 1458v-137q0 -41 -40 -41h-654l8 -1239q0 -41 -41 -41h-176q-41 0 -41 41l7 1417q0 41 40 41h857q40 0 40 -41z" />
    <glyph glyph-name="Decy" unicode="&#x414;" horiz-adv-x="1673" 
d="M1415 219h125q44 0 41 -43l-31 -506q-3 -39 -41 -39h-116q-41 0 -41 41l-6 328h-1018l-6 -328q0 -41 -41 -41h-117q-38 0 -41 39l-31 506q-3 43 41 43h148q131 83 168 342l120 899q6 39 45 39h752q41 0 41 -41zM1159 219l4 1061h-397l-88 -686q-34 -251 -105 -375h586z
" />
    <glyph glyph-name="Iecy" unicode="&#x415;" horiz-adv-x="1239" 
d="M393 1280l2 -389h627q41 0 41 -41v-137q0 -41 -41 -41h-625l2 -453h709q41 0 41 -41v-137q0 -41 -41 -41h-926q-41 0 -41 41l9 1417q0 41 40 41h918q41 0 41 -41v-137q0 -41 -41 -41h-715z" />
    <glyph glyph-name="Zhecy" unicode="&#x416;" horiz-adv-x="2211" 
d="M1479 776l571 -727q15 -20 8 -34.5t-33 -14.5h-215q-30 0 -49 25l-489 622h-43l4 -606q0 -41 -41 -41h-174q-41 0 -41 41l2 606h-39l-489 -622q-19 -25 -50 -25h-215q-26 0 -32.5 14.5t8.5 34.5l571 727l-586 672q-17 22 -10 36.5t35 14.5h199q32 0 51 -22l518 -607h41
l2 588q0 41 41 41h160q41 0 41 -41l4 -588h43l518 607q19 22 51 22h199q28 0 34.5 -14.5t-10.5 -36.5z" />
    <glyph glyph-name="Zecy" unicode="&#x417;" horiz-adv-x="1314" 
d="M961 799q133 -49 197.5 -143.5t64.5 -221.5q0 -93 -34 -173.5t-101 -145.5t-179 -102.5t-256 -37.5q-125 0 -228 34t-170.5 91t-108 126t-52.5 145q-3 20 7.5 31.5t31.5 11.5h162q34 0 43 -37q49 -189 324 -189q156 0 242.5 68.5t86.5 192.5q0 122 -86 180.5t-284 58.5
h-123q-41 0 -41 41v119q0 41 41 41h123q329 0 329 213q0 101 -77.5 162t-217.5 61q-236 0 -303 -192q-11 -35 -45 -35h-145q-46 0 -37 45q19 76 59.5 143.5t105 125t163 91t219.5 33.5q124 0 223 -35t160 -94t93 -131.5t32 -151.5q0 -104 -54 -189.5t-165 -135.5z" />
    <glyph glyph-name="Iicy" unicode="&#x418;" horiz-adv-x="1527" 
d="M1112 1499h234q40 0 40 -41l-8 -1417q0 -41 -41 -41h-155q-41 0 -41 41l-6 1122l-652 -1134q-17 -29 -49 -29h-244q-40 0 -40 41l-9 1417q0 41 41 41h172q41 0 41 -41l-6 -1169l674 1181q17 29 49 29z" />
    <glyph glyph-name="Iishortcy" unicode="&#x419;" horiz-adv-x="1527" 
d="M772 1587q-137 0 -218 74t-81 221q0 33 41 33h92q41 0 41 -33q0 -70 35 -105.5t90 -35.5q57 0 92 35.5t35 105.5q0 33 41 33h94q41 0 41 -33q0 -147 -82 -221t-221 -74zM1112 1499h234q40 0 40 -41l-8 -1417q0 -41 -41 -41h-155q-41 0 -41 41l-6 1122l-652 -1134
q-17 -29 -49 -29h-244q-40 0 -40 41l-9 1417q0 41 41 41h172q41 0 41 -41l-6 -1169l674 1181q17 29 49 29z" />
    <glyph glyph-name="Kacy" unicode="&#x41a;" horiz-adv-x="1458" 
d="M641 776l752 -725q20 -20 14.5 -35.5t-33.5 -15.5h-233q-29 0 -49 20l-658 627h-37l4 -606q0 -41 -41 -41h-176q-41 0 -41 41l7 1417q0 41 40 41h160q41 0 41 -41l4 -588h39l664 609q23 20 51 20h215q29 0 34.5 -15.5t-14.5 -35.5z" />
    <glyph glyph-name="Elcy" unicode="&#x41b;" horiz-adv-x="1499" 
d="M1317 0h-176q-41 0 -41 41l6 1239h-469l-59 -688q-14 -168 -47 -277.5t-96 -179t-152 -99.5t-222 -34q-41 0 -41 41v133q0 40 41 43q78 4 129.5 25t84 65t48.5 102.5t25 149.5l84 899q3 39 43 39h834q41 0 41 -41l8 -1417q0 -41 -41 -41z" />
    <glyph glyph-name="Emcy" unicode="&#x41c;" horiz-adv-x="1828" 
d="M1647 0h-166q-41 0 -41 41l-19 1165l-377 -1173q-9 -33 -45 -33h-161q-37 0 -45 35l-385 1206l-19 -1200q0 -41 -41 -41h-166q-42 0 -39 41l47 1417q3 41 43 41h271q36 0 45 -33l371 -1140l368 1140q9 33 45 33h262q40 0 43 -41l48 -1417q3 -41 -39 -41z" />
    <glyph glyph-name="Ency" unicode="&#x41d;" horiz-adv-x="1538" 
d="M1356 0h-178q-41 0 -41 41l4 631h-744l4 -631q0 -41 -41 -41h-178q-41 0 -41 41l9 1417q0 41 40 41h160q41 0 41 -41l4 -567h748l4 567q0 41 41 41h160q41 0 41 -41l8 -1417q0 -41 -41 -41z" />
    <glyph glyph-name="Ocy" unicode="&#x41e;" horiz-adv-x="1634" 
d="M829 1532q152 0 284 -55t226.5 -153.5t148.5 -240.5t54 -309q0 -229 -96 -414t-264.5 -289t-374.5 -104q-152 0 -284.5 58t-228 160t-150 248.5t-54.5 316.5q0 226 97 405.5t265.5 278t376.5 98.5zM811 1317q-102 0 -188.5 -36t-151 -104t-101 -173.5t-36.5 -237.5
q0 -268 137 -425t352 -157q101 0 188 38.5t151 109.5t101 179t37 241q0 266 -136.5 415.5t-352.5 149.5z" />
    <glyph glyph-name="Pecy" unicode="&#x41f;" horiz-adv-x="1499" 
d="M1317 0h-176q-41 0 -41 41l6 1239h-713l8 -1239q0 -41 -41 -41h-176q-41 0 -41 41l7 1417q0 41 40 41h1117q41 0 41 -41l10 -1417q0 -41 -41 -41z" />
    <glyph glyph-name="Ercy" unicode="&#x420;" horiz-adv-x="1402" 
d="M190 1499h594q236 0 381.5 -129.5t145.5 -337.5q0 -212 -147 -352.5t-380 -140.5h-387l4 -498q0 -41 -41 -41h-178q-41 0 -41 41l9 1417q0 41 40 41zM397 752h369q148 0 225.5 67t77.5 189q0 127 -84 202.5t-219 75.5h-373z" />
    <glyph glyph-name="Escy" unicode="&#x421;" horiz-adv-x="1568" 
d="M815 1532q225 0 396.5 -117t244.5 -325q7 -22 -2.5 -35t-32.5 -13l-151 -2q-32 0 -49 29q-70 120 -179 184t-241 64q-99 0 -183.5 -36t-148 -104t-99.5 -173.5t-36 -237.5q0 -270 137.5 -426t362.5 -156q275 0 395 254q15 31 49 31l152 -2q23 0 32.5 -12.5t1.5 -32.5
q-30 -87 -84 -164.5t-133 -144.5t-192 -106.5t-244 -39.5q-213 0 -377.5 99t-254 275.5t-89.5 403.5q0 172 56 319.5t152.5 249.5t230.5 160t286 58z" />
    <glyph glyph-name="Tecy" unicode="&#x422;" horiz-adv-x="1247" 
d="M1214 1458v-137q0 -41 -40 -41h-429l9 -1239q0 -41 -41 -41h-176q-41 0 -41 41l8 1239h-428q-41 0 -41 41v137q0 41 41 41h1098q40 0 40 -41z" />
    <glyph glyph-name="Ucy" unicode="&#x423;" horiz-adv-x="1298" 
d="M1061 1499h164q51 0 32 -47l-475 -1073q-62 -141 -148 -226.5t-184.5 -119t-228.5 -33.5h-84q-41 0 -41 41v131q0 41 41 41h39q121 0 205.5 40t142.5 140l-481 1059q-11 20 -2.5 33.5t33.5 13.5h162q34 0 49 -31l354 -798h14l359 798q16 31 49 31z" />
    <glyph glyph-name="Efcy" unicode="&#x424;" horiz-adv-x="1697" 
d="M1606 776q0 -269 -176 -440t-461 -201v-125q0 -41 -41 -41h-174q-41 0 -41 41v127q-283 33 -453 195t-170 416t173 417.5t456 196.5v131q0 41 41 41h160q41 0 41 -41v-127q192 -18 337 -92t226.5 -202.5t81.5 -295.5zM963 1149l4 -795q189 24 293 127t104 279
q0 168 -106.5 266.5t-294.5 122.5zM334 760q0 -171 101 -274t280 -130l2 791q-182 -25 -282.5 -123t-100.5 -264z" />
    <glyph glyph-name="Hacy" unicode="&#x425;" horiz-adv-x="1511" 
d="M1362 0h-205q-34 0 -49 27l-358 555l-359 -555q-15 -27 -49 -27h-192q-25 0 -33 14.5t6 34.5l498 731l-433 670q-14 22 -6.5 35.5t33.5 13.5h172q34 0 51 -26l346 -521l344 521q17 26 52 26h161q25 0 33 -14.5t-6 -34.5l-457 -688l478 -713q14 -20 6 -34.5t-33 -14.5z
" />
    <glyph glyph-name="Tsecy" unicode="&#x426;" horiz-adv-x="1546" 
d="M1356 219h127q44 0 41 -43l-29 -506q-3 -39 -41 -39h-117q-41 0 -41 41l-8 328h-1104q-41 0 -41 41l7 1417q0 41 40 41h160q41 0 41 -41l8 -1239h701l6 1239q0 41 41 41h160q41 0 41 -41z" />
    <glyph glyph-name="Checy" unicode="&#x427;" horiz-adv-x="1443" 
d="M1262 0h-177q-41 0 -41 41l5 569q-190 -155 -445 -155q-225 0 -370 141.5t-144 392.5l6 469q0 41 41 41h158q41 0 41 -41l2 -454q0 -159 82.5 -239.5t232.5 -78.5q221 3 396 172l4 600q0 41 41 41h159q41 0 41 -41l9 -1417q0 -41 -41 -41z" />
    <glyph glyph-name="Shacy" unicode="&#x428;" horiz-adv-x="2043" 
d="M1903 6v-2q4 -4 -48 -4h-1667h-18q-29 3 -29 39l9 1419q0 41 40 41h160q41 0 41 -41l8 -1239h494l8 1239q0 41 41 41h160q41 0 41 -41l6 -1239h496l6 1239q0 41 41 41h159q41 0 41 -41z" />
    <glyph glyph-name="Shchacy" unicode="&#x429;" horiz-adv-x="2088" 
d="M1901 219h124q44 0 41 -43l-30 -506q-3 -39 -41 -39h-117q-41 0 -41 41l-6 328h-1643h-18q-29 3 -29 39l9 1419q0 41 40 41h160q41 0 41 -41l8 -1239h494l8 1239q0 41 41 41h160q41 0 41 -41l6 -1239h496l6 1239q0 41 41 41h159q41 0 41 -41z" />
    <glyph glyph-name="Hardsigncy" unicode="&#x42a;" horiz-adv-x="1484" 
d="M549 870h348q223 0 360.5 -119t137.5 -315t-137.5 -316t-360.5 -120h-563q-41 0 -41 41l6 1239h-238q-41 0 -41 41v137q0 41 41 41h443q41 0 41 -41zM551 213h332q134 0 201 57.5t67 165.5q0 106 -75.5 162.5t-225.5 56.5h-301z" />
    <glyph glyph-name="Yerucy" unicode="&#x42b;" horiz-adv-x="1816" 
d="M395 870h350q222 0 359 -119t137 -315t-137 -316t-359 -120h-563q-41 0 -41 41l9 1417q0 41 40 41h160q41 0 41 -41zM1667 1458l8 -1417q0 -41 -41 -41h-174q-41 0 -41 41l6 1417q0 41 41 41h160q41 0 41 -41zM399 213h332q133 0 200.5 58t67.5 165q0 106 -76 162.5
t-227 56.5h-299z" />
    <glyph glyph-name="Softsigncy" unicode="&#x42c;" horiz-adv-x="1333" 
d="M395 870h350q222 0 359 -119t137 -315t-137 -316t-359 -120h-563q-41 0 -41 41l9 1417q0 41 40 41h160q41 0 41 -41zM399 213h332q133 0 200.5 58t67.5 165q0 106 -76 162.5t-227 56.5h-299z" />
    <glyph glyph-name="Ereversedcy" unicode="&#x42d;" horiz-adv-x="1568" 
d="M754 1532q152 0 286 -58t230.5 -160t152.5 -249.5t56 -319.5q0 -227 -89.5 -403.5t-254 -275.5t-377.5 -99q-131 0 -244 39.5t-192.5 106.5t-133.5 145t-84 164q-8 20 2 32.5t33 12.5l152 2q33 0 49 -31q120 -254 395 -254q201 0 334.5 127t159.5 351h-627q-41 0 -41 40
v115q0 41 41 41h629q-24 220 -150.5 339.5t-312.5 119.5q-132 0 -241 -64t-179 -184q-17 -29 -49 -29l-152 2q-23 0 -32.5 13t-1.5 35q73 208 244.5 325t396.5 117z" />
    <glyph glyph-name="Iucy" unicode="&#x42e;" horiz-adv-x="2035" 
d="M1296 1532q140 0 259.5 -52t206 -148t135.5 -239.5t49 -318.5q0 -179 -51.5 -331t-141 -256t-213 -162t-266.5 -58q-264 0 -441.5 181t-207.5 491h-228l4 -598q0 -41 -41 -41h-176q-41 0 -41 41l7 1417q0 41 40 41h160q41 0 41 -41l4 -600h230q20 206 112 360t236.5 234
t322.5 80zM1288 184q193 0 304.5 154.5t111.5 413.5q0 257 -114.5 411t-311.5 154q-192 0 -304 -150.5t-112 -400.5q0 -264 114.5 -423t311.5 -159z" />
    <glyph glyph-name="Iacy" unicode="&#x42f;" horiz-adv-x="1390" 
d="M1208 0h-178q-41 0 -41 41l4 582h-243l-396 -596q-18 -27 -51 -27h-213q-26 0 -33.5 14.5t6.5 34.5l418 588q-176 35 -277.5 153.5t-101.5 278.5q0 189 138.5 309.5t367.5 120.5h592q41 0 41 -41l8 -1417q0 -41 -41 -41zM995 836l2 450h-360q-137 0 -215 -63t-78 -172
q0 -215 293 -215h358z" />
    <glyph glyph-name="acy" unicode="&#x430;" horiz-adv-x="1179" 
d="M602 1133q197 0 313.5 -104t116.5 -288l8 -700q0 -41 -41 -41h-161q-41 0 -41 41l2 125h-17q-57 -87 -153.5 -138t-216.5 -51q-150 0 -241 82.5t-91 229.5q0 171 138.5 259t445.5 124q135 15 135 108q0 65 -58.5 106.5t-154.5 41.5q-162 0 -213 -123q-14 -33 -47 -33
h-146q-22 0 -32.5 10t-6.5 27q39 149 158 236.5t303 87.5zM797 516l-11 6q-59 -20 -143 -33q-167 -27 -247.5 -68t-80.5 -118q0 -55 39.5 -86t114.5 -31q73 0 137.5 26t106.5 67t65 89t21 93z" />
    <glyph glyph-name="becy" unicode="&#x431;" horiz-adv-x="1263" 
d="M686 1065q217 0 358.5 -158t141.5 -405q0 -150 -59 -269.5t-179.5 -192.5t-285.5 -73q-250 0 -387 159t-134 415l4 389q4 303 159.5 456.5t449.5 153.5q146 0 239 21q45 12 45 -35v-131q0 -37 -34 -45q-80 -23 -242 -23q-381 0 -381 -340v-26h12q59 46 139 75t154 29z
M666 852q-131 0 -214.5 -98t-74.5 -258v14q0 -158 82 -244t209 -86q132 0 204 89.5t72 236.5q0 157 -77 251.5t-201 94.5z" />
    <glyph glyph-name="vecy" unicode="&#x432;" horiz-adv-x="1191" 
d="M936 569q88 -34 134 -99.5t46 -156.5q0 -137 -105.5 -225t-267.5 -88h-563q-41 0 -41 41l8 1018q0 41 41 41h494q162 0 261 -93t99 -221q0 -132 -106 -217zM385 889l2 -254h289q60 0 97.5 36.5t37.5 92.5q0 51 -35.5 88t-99.5 37h-291zM389 213h281q204 0 204 123
q0 58 -49.5 92.5t-154.5 34.5h-283z" />
    <glyph glyph-name="gecy" unicode="&#x433;" horiz-adv-x="999" 
d="M952 1059v-137q0 -41 -41 -41h-526l6 -840q0 -41 -41 -41h-170q-41 0 -41 41l8 1018q0 41 41 41h723q41 0 41 -41z" />
    <glyph glyph-name="decy" unicode="&#x434;" horiz-adv-x="1427" 
d="M1157 219h146q43 0 40 -43l-28 -506q-3 -39 -41 -39h-107q-41 0 -41 41l-6 328h-813l-6 -328q0 -41 -41 -41h-104q-38 0 -41 39l-31 506q-3 43 41 43h113q76 67 88 203l75 639q3 39 43 39h666q41 0 41 -41zM909 219l4 662h-319l-45 -428q-16 -153 -53 -234h413z" />
    <glyph glyph-name="iecy" unicode="&#x435;" horiz-adv-x="1175" 
d="M618 1135q124 0 220 -46.5t154 -128.5t85.5 -190t20.5 -235q-3 -39 -43 -39h-738q7 -160 90 -238t214 -78q73 0 124.5 27.5t90.5 89.5q17 29 49 29h145q23 0 32.5 -12.5t0.5 -34.5q-62 -151 -184 -231.5t-279 -80.5q-229 0 -375.5 158.5t-146.5 417.5q0 262 149 427
t391 165zM598 922q-211 0 -268 -238h522q-2 100 -68.5 169t-185.5 69z" />
    <glyph glyph-name="zhecy" unicode="&#x436;" horiz-adv-x="1787" 
d="M1257 563l441 -512q17 -22 10 -36.5t-33 -14.5h-225q-32 0 -49 25l-359 450h-30l4 -434q0 -41 -41 -41h-166q-41 0 -41 41l4 434h-27l-358 -450q-17 -25 -49 -25h-225q-26 0 -33 14.5t10 36.5l440 512l-436 486q-18 20 -11 35.5t34 15.5h213q31 0 51 -23l364 -438h29
l4 420q0 41 41 41h148q41 0 41 -41l4 -420h30l367 438q20 23 51 23h211q27 0 34 -15.5t-11 -35.5z" />
    <glyph glyph-name="zecy" unicode="&#x437;" horiz-adv-x="1105" 
d="M795 571q235 -66 235 -268q0 -141 -128.5 -238.5t-356.5 -97.5q-190 0 -313 83.5t-148 197.5q-4 20 6 31.5t31 11.5h155q32 0 48 -31q52 -94 227 -94q115 0 177.5 38t62.5 109q0 76 -63 114t-208 38h-92q-41 0 -41 41v108q0 41 41 41h92q228 0 228 152q0 64 -54.5 98.5
t-154.5 34.5q-151 0 -205 -92q-19 -31 -49 -31h-142q-22 0 -31.5 12.5t-2.5 32.5q18 53 52.5 99t89 86t136 63t180.5 23q176 0 292 -92.5t116 -215.5q0 -81 -44.5 -148.5t-135.5 -105.5z" />
    <glyph glyph-name="iicy" unicode="&#x438;" horiz-adv-x="1284" 
d="M1104 0h-160q-41 0 -41 41l6 745l-460 -759q-18 -27 -50 -27h-219q-41 0 -41 41l8 1018q0 41 41 41h144q41 0 41 -41l6 -740l455 752q17 29 49 29h213q41 0 41 -41l8 -1018q0 -41 -41 -41z" />
    <glyph glyph-name="iishortcy" unicode="&#x439;" horiz-adv-x="1284" 
d="M653 1186q-137 0 -218 74t-81 221q0 32 41 32h92q41 0 41 -32q0 -70 35.5 -106t89.5 -36q57 0 92 36t35 106q0 32 41 32h94q41 0 41 -32q0 -147 -82 -221t-221 -74zM1104 0h-160q-41 0 -41 41l6 745l-460 -759q-18 -27 -50 -27h-219q-41 0 -41 41l8 1018q0 41 41 41h144
q41 0 41 -41l6 -740l455 752q17 29 49 29h213q41 0 41 -41l8 -1018q0 -41 -41 -41z" />
    <glyph glyph-name="kacy" unicode="&#x43a;" horiz-adv-x="1218" 
d="M651 563l473 -512q19 -20 12.5 -35.5t-32.5 -15.5h-223q-32 0 -52 23l-403 452h-39l4 -434q0 -41 -41 -41h-170q-41 0 -41 41l8 1018q0 41 41 41h154q41 0 41 -41l4 -420h39l412 438q20 23 51 23h211q28 0 34 -15.5t-14 -35.5z" />
    <glyph glyph-name="elcy" unicode="&#x43b;" horiz-adv-x="1265" 
d="M1085 0h-172q-41 0 -41 41l9 840h-344l-31 -428q-12 -163 -64.5 -262.5t-137.5 -142.5t-216 -48q-41 0 -41 41v133q0 40 41 43q87 6 133 56t53 149l56 639q3 39 43 39h702q41 0 41 -41l10 -1018q0 -41 -41 -41z" />
    <glyph glyph-name="emcy" unicode="&#x43c;" horiz-adv-x="1554" 
d="M1417 0h-153q-41 0 -41 41l-13 819l-297 -827q-11 -33 -47 -33h-170q-36 0 -47 33l-303 858l-14 -850q0 -41 -41 -41h-152q-42 0 -39 41l37 1014q3 41 43 41h260q36 0 47 -33l293 -813l293 813q11 33 47 33h254q40 0 43 -41l39 -1014q3 -41 -39 -41z" />
    <glyph glyph-name="ency" unicode="&#x43d;" horiz-adv-x="1269" 
d="M1090 0h-172q-41 0 -41 41l4 428h-494l4 -428q0 -41 -41 -41h-170q-41 0 -41 41l8 1018q0 41 41 41h154q41 0 41 -41l2 -371h498l4 371q0 41 41 41h153q41 0 41 -41l8 -1018q0 -41 -40 -41z" />
    <glyph glyph-name="ocy" unicode="&#x43e;" horiz-adv-x="1226" 
d="M623 1133q150 0 269.5 -71t188 -201.5t68.5 -297.5q0 -169 -71.5 -306t-196 -213.5t-277.5 -76.5q-227 0 -376.5 163t-149.5 415q0 128 41.5 237.5t114 186.5t173.5 120.5t216 43.5zM596 922q-124 0 -201.5 -96t-77.5 -259q0 -173 90 -279t222 -106q123 0 200.5 97
t77.5 258q0 176 -88.5 280.5t-222.5 104.5z" />
    <glyph glyph-name="pecy" unicode="&#x43f;" horiz-adv-x="1249" 
d="M1069 0h-170q-41 0 -41 41l6 840h-479l6 -840q0 -41 -41 -41h-170q-41 0 -41 41l8 1018q0 41 41 41h873q41 0 41 -41l8 -1018q0 -41 -41 -41z" />
    <glyph glyph-name="ercy" unicode="&#x440;" horiz-adv-x="1263" 
d="M733 1133q132 0 235.5 -74t160.5 -204t57 -294q0 -262 -141 -428t-359 -166q-93 0 -159.5 24t-127.5 77h-10l2 -478q0 -41 -41 -41h-170q-41 0 -41 41l8 1469q0 41 41 41h154q41 0 41 -41l2 -109l16 2q55 89 143 135t189 46zM668 180q135 0 205.5 95t70.5 268
q0 179 -76.5 279t-201.5 100q-127 0 -211 -102t-84 -277q-4 -178 79.5 -270.5t217.5 -92.5z" />
    <glyph glyph-name="escy" unicode="&#x441;" horiz-adv-x="1114" 
d="M596 1135q94 0 176.5 -29t141 -77.5t97.5 -108.5t56 -125q9 -45 -37 -45h-147q-32 0 -47 30q-40 71 -96.5 106.5t-141.5 35.5q-281 0 -281 -379q0 -191 76 -276t217 -85q85 0 134.5 31.5t82.5 89.5q15 31 47 31h148q23 0 32.5 -12.5t2.5 -32.5q-22 -62 -61.5 -117.5
t-96.5 -102.5t-137.5 -74.5t-173.5 -27.5q-233 0 -371.5 155.5t-138.5 414.5q0 275 143 436.5t375 161.5z" />
    <glyph glyph-name="tecy" unicode="&#x442;" horiz-adv-x="1081" 
d="M1034 1059v-137q0 -41 -41 -41h-336l9 -840q0 -41 -41 -41h-172q-41 0 -41 41l6 840h-330q-41 0 -41 41v137q0 41 41 41h905q41 0 41 -41z" />
    <glyph glyph-name="ucy" unicode="&#x443;" horiz-adv-x="1136" 
d="M901 1100h148q48 0 32 -47l-389 -1143q-67 -196 -182.5 -278.5t-312.5 -82.5h-56q-41 0 -41 41v131q0 41 39 41q130 0 201.5 41t108.5 134l-394 1116q-7 22 2 34.5t31 12.5h150q36 0 45 -33l268 -797h18l285 797q11 33 47 33z" />
    <glyph glyph-name="efcy" unicode="&#x444;" horiz-adv-x="1595" 
d="M1518 563q0 -244 -157 -405.5t-435 -194.5l2 -373q0 -41 -41 -41h-172q-41 0 -41 41l2 371q-279 28 -438.5 186t-159.5 398q0 241 161 401.5t443 192.5l2 360q0 41 41 41h154q41 0 41 -41l2 -360q278 -28 437 -183.5t159 -392.5zM303 567q0 -152 99 -257.5t276 -137.5
l2 764q-177 -23 -277 -123t-100 -246zM922 930l4 -760q171 26 267.5 124.5t96.5 242.5q0 150 -97.5 255.5t-270.5 137.5z" />
    <glyph glyph-name="hacy" unicode="&#x445;" horiz-adv-x="1173" 
d="M739 539l334 -490q14 -20 6.5 -34.5t-32.5 -14.5h-183q-33 0 -51 27l-238 360l-239 -360q-18 -27 -51 -27h-176q-26 0 -33.5 14.5t6.5 34.5l371 524l-318 478q-14 20 -6 34.5t33 14.5h166q31 0 49 -27l239 -352l244 352q18 27 49 27h158q26 0 34 -14.5t-7 -34.5z" />
    <glyph glyph-name="tsecy" unicode="&#x446;" horiz-adv-x="1323" 
d="M1116 219h117q44 0 41 -43l-31 -506q-3 -39 -41 -39h-104q-41 0 -41 41l-6 328h-871q-41 0 -41 41l8 1018q0 41 41 41h154q41 0 41 -41l6 -840h477l6 840q0 41 41 41h154q41 0 41 -41z" />
    <glyph glyph-name="checy" unicode="&#x447;" horiz-adv-x="1155" 
d="M975 0h-170q-41 0 -41 41l2 328q-134 -95 -311 -95t-277.5 107.5t-99.5 302.5l4 375q0 41 41 41h156q40 0 40 -41l-4 -316q-1 -120 50 -179.5t149 -59.5q151 0 254 98l4 457q0 41 41 41h154q41 0 41 -41l8 -1018q0 -41 -41 -41z" />
    <glyph glyph-name="shacy" unicode="&#x448;" horiz-adv-x="1894" 
d="M1747 1059l8 -1018q0 -41 -41 -41h-1534q-41 0 -41 41l8 1018q0 41 41 41h154q41 0 41 -41l6 -840h434l6 840q0 41 41 41h154q41 0 41 -41l6 -840h434l6 840q0 41 41 41h154q41 0 41 -41z" />
    <glyph glyph-name="shchacy" unicode="&#x449;" horiz-adv-x="1894" 
d="M1753 219h90q44 0 41 -43l-31 -506q-3 -39 -41 -39h-104q-41 0 -41 41l-8 328h-1479q-41 0 -41 41l8 1018q0 41 41 41h154q41 0 41 -41l6 -840h434l6 840q0 41 41 41h154q41 0 41 -41l6 -840h434l6 840q0 41 41 41h154q41 0 41 -41z" />
    <glyph glyph-name="hardsigncy" unicode="&#x44a;" horiz-adv-x="1349" 
d="M535 721h323q180 0 297 -105.5t117 -253.5q0 -146 -119.5 -254t-294.5 -108h-530q-41 0 -41 41l8 840h-207q-41 0 -41 41v137q0 41 41 41h401q41 0 41 -41zM539 213h307q85 0 134.5 45.5t49.5 103.5q0 57 -59 101.5t-160 44.5h-274z" />
    <glyph glyph-name="yerucy" unicode="&#x44b;" horiz-adv-x="1673" 
d="M385 721h326q180 0 296.5 -105.5t116.5 -253.5q0 -146 -119 -254t-294 -108h-531q-41 0 -41 41l8 1018q0 41 41 41h154q41 0 41 -41zM1526 1059l8 -1018q0 -41 -41 -41h-170q-41 0 -41 41l8 1018q0 41 41 41h154q41 0 41 -41zM389 213h307q85 0 136 46t51 103t-59 101.5
t-160 44.5h-277z" />
    <glyph glyph-name="softsigncy" unicode="&#x44c;" horiz-adv-x="1202" 
d="M385 721h326q180 0 296.5 -105.5t116.5 -253.5q0 -146 -119 -254t-294 -108h-531q-41 0 -41 41l8 1018q0 41 41 41h154q41 0 41 -41zM389 213h307q85 0 136 46t51 103t-59 101.5t-160 44.5h-277z" />
    <glyph glyph-name="ereversedcy" unicode="&#x44d;" horiz-adv-x="1153" 
d="M557 1135q232 0 375 -161.5t143 -436.5q0 -259 -138.5 -414.5t-371.5 -155.5q-93 0 -173.5 27.5t-137.5 74.5t-96.5 102.5t-61.5 117.5q-7 20 2.5 32.5t32.5 12.5h148q31 0 47 -31q33 -58 82.5 -89.5t134.5 -31.5q123 0 195.5 63.5t90.5 205.5h-348q-41 0 -41 41v114
q0 41 41 41h348q-37 275 -274 275q-85 0 -141.5 -35.5t-96.5 -106.5q-15 -30 -47 -30h-147q-21 0 -31.5 8t-7.5 22q14 67 52.5 129.5t97.5 113.5t143 81.5t180 30.5z" />
    <glyph glyph-name="iucy" unicode="&#x44e;" horiz-adv-x="1677" 
d="M1092 1133q220 0 363.5 -158.5t143.5 -411.5q0 -127 -40.5 -238t-110 -189.5t-166.5 -123.5t-207 -45q-195 0 -333 130.5t-167 342.5h-188l4 -399q0 -41 -41 -41h-170q-41 0 -41 41l8 1018q0 41 41 41h154q41 0 41 -41l4 -402h188q32 214 174.5 345t342.5 131zM1098 182
q115 0 187.5 97t72.5 258q0 175 -83.5 280t-207.5 105q-116 0 -188 -96t-72 -259q0 -172 84.5 -278.5t206.5 -106.5z" />
    <glyph glyph-name="iacy" unicode="&#x44f;" horiz-adv-x="1228" 
d="M1049 0h-170q-41 0 -41 41l2 346h-213l-236 -360q-18 -27 -51 -27h-201q-26 0 -32.5 14.5t8.5 34.5l262 367q-110 40 -176 128.5t-66 198.5q0 146 118.5 251.5t287.5 105.5h499q41 0 41 -41l9 -1018q0 -41 -41 -41zM842 602l2 287h-289q-79 0 -127.5 -44t-48.5 -102
t57 -99.5t154 -41.5h252z" />
    <glyph glyph-name="iocy" unicode="&#x451;" horiz-adv-x="1175" 
d="M535 1501v-153q0 -41 -41 -41h-127q-41 0 -41 41v153q0 41 41 41h127q41 0 41 -41zM862 1501v-153q0 -41 -41 -41h-127q-41 0 -41 41v153q0 41 41 41h127q41 0 41 -41zM618 1135q124 0 220 -46.5t154 -128.5t85.5 -190t20.5 -235q-3 -39 -43 -39h-738q7 -160 90 -238
t214 -78q73 0 124.5 27.5t90.5 89.5q17 29 49 29h145q23 0 32.5 -12.5t0.5 -34.5q-62 -151 -184 -231.5t-279 -80.5q-229 0 -375.5 158.5t-146.5 417.5q0 262 149 427t391 165zM598 922q-211 0 -268 -238h522q-2 100 -68.5 169t-185.5 69z" />
    <glyph glyph-name="gjecy" unicode="&#x453;" horiz-adv-x="999" 
d="M764 1513l-203 -253q-17 -25 -49 -25h-68q-25 0 -32.5 13.5t4.5 35.5l133 250q17 29 49 29h143q26 0 33 -15t-10 -35zM952 1059v-137q0 -41 -41 -41h-526l6 -840q0 -41 -41 -41h-170q-41 0 -41 41l8 1018q0 41 41 41h723q41 0 41 -41z" />
    <glyph glyph-name="ecy" unicode="&#x454;" horiz-adv-x="1153" 
d="M610 182q85 0 134.5 31.5t82.5 89.5q15 31 47 31h148q23 0 32.5 -12.5t2.5 -32.5q-22 -62 -61.5 -117.5t-96.5 -102.5t-137.5 -74.5t-173.5 -27.5q-233 0 -371.5 155.5t-138.5 414.5q0 275 143 436.5t375 161.5q94 0 176.5 -29t141 -77.5t97.5 -108.5t56 -125
q9 -45 -37 -45h-147q-32 0 -47 30q-40 71 -96.5 106.5t-141.5 35.5q-237 0 -274 -275h348q41 0 41 -41v-114q0 -41 -41 -41h-348q18 -142 90.5 -205.5t195.5 -63.5z" />
    <glyph glyph-name="dzecy" unicode="&#x455;" horiz-adv-x="1105" 
d="M553 1133q94 0 174.5 -27t134.5 -71.5t89 -95.5t50 -105q6 -20 -4 -31.5t-32 -11.5h-150q-31 0 -51 26q-79 105 -223 105q-81 0 -130 -34.5t-49 -86.5q0 -42 48.5 -69.5t171.5 -63.5l86 -25q192 -54 275 -132.5t83 -191.5q0 -159 -122.5 -255.5t-323.5 -96.5
q-102 0 -186.5 26t-143 71.5t-97.5 101t-61 121.5q-6 20 3.5 32.5t31.5 12.5h168q30 0 49 -29q40 -67 100 -95t148 -28q188 0 188 117q0 48 -50 84t-173 70l-82 22q-171 47 -260.5 119t-89.5 194q0 150 122.5 248.5t305.5 98.5z" />
    <glyph glyph-name="icy" unicode="&#x456;" horiz-adv-x="571" 
d="M406 1499v-153q0 -41 -41 -41h-154q-41 0 -41 41v153q0 41 41 41h154q41 0 41 -41zM403 1059l9 -1018q0 -41 -41 -41h-170q-41 0 -41 41l8 1018q0 41 41 41h153q41 0 41 -41z" />
    <glyph glyph-name="yicy" unicode="&#x457;" horiz-adv-x="571" 
d="M236 1501v-153q0 -41 -41 -41h-127q-41 0 -41 41v153q0 41 41 41h127q41 0 41 -41zM563 1501v-153q0 -41 -41 -41h-127q-41 0 -41 41v153q0 41 41 41h127q41 0 41 -41zM403 1059l9 -1018q0 -41 -41 -41h-170q-41 0 -41 41l8 1018q0 41 41 41h153q41 0 41 -41z" />
    <glyph glyph-name="jecy" unicode="&#x458;" horiz-adv-x="620" 
d="M434 1499v-153q0 -41 -41 -41h-153q-41 0 -41 41v153q0 41 41 41h153q41 0 41 -41zM434 1059l8 -1059q1 -221 -110.5 -331.5t-343.5 -119.5q-43 0 -43 41v131q0 40 41 43q110 9 156 58.5t48 157.5l9 1079q0 41 41 41h153q41 0 41 -41z" />
    <glyph glyph-name="kjecy" unicode="&#x45c;" horiz-adv-x="1218" 
d="M872 1513l-202 -253q-17 -25 -49 -25h-68q-25 0 -33 13.5t4 35.5l133 250q17 29 50 29h143q26 0 32.5 -15t-10.5 -35zM651 563l473 -512q19 -20 12.5 -35.5t-32.5 -15.5h-223q-32 0 -52 23l-403 452h-39l4 -434q0 -41 -41 -41h-170q-41 0 -41 41l8 1018q0 41 41 41h154
q41 0 41 -41l4 -420h39l412 438q20 23 51 23h211q28 0 34 -15.5t-14 -35.5z" />
    <glyph glyph-name="ushortcy" unicode="&#x45e;" horiz-adv-x="1136" 
d="M571 1190q-137 0 -218 74t-81 221q0 33 41 33h93q40 0 40 -33q0 -70 35.5 -106t89.5 -36q57 0 92 36t35 106q0 33 41 33h95q40 0 40 -33q0 -147 -82 -221t-221 -74zM901 1100h148q48 0 32 -47l-389 -1143q-67 -196 -182.5 -278.5t-312.5 -82.5h-56q-41 0 -41 41v131
q0 41 39 41q130 0 201.5 41t108.5 134l-394 1116q-7 22 2 34.5t31 12.5h150q36 0 45 -33l268 -797h18l285 797q11 33 47 33z" />
    <glyph glyph-name="Yatcy" unicode="&#x462;" horiz-adv-x="1333" 
d="M395 870h350q222 0 359 -119t137 -315t-137 -316t-359 -120h-563q-41 0 -41 41l6 1046h-174q-41 0 -41 41v109q0 41 41 41h174l3 180q0 41 40 41h160q41 0 41 -41l2 -180h279q41 0 41 -41v-109q0 -41 -41 -41h-279zM399 213h332q133 0 200.5 58t67.5 165q0 106 -76 162.5
t-227 56.5h-299z" />
    <glyph glyph-name="yatcy" unicode="&#x463;" horiz-adv-x="1318" 
d="M506 721h321q180 0 297 -105.5t117 -253.5q0 -146 -119.5 -254t-294.5 -108h-530q-41 0 -41 41l4 870h-172q-41 0 -41 41v107q0 41 41 41h174l2 399q0 41 41 41h154q41 0 41 -41l2 -399h284q41 0 41 -41v-107q0 -41 -41 -41h-282zM508 213h305q86 0 136 45.5t50 103.5
q0 57 -59 101.5t-160 44.5h-274z" />
    <glyph glyph-name="Gheupturncy" unicode="&#x490;" horiz-adv-x="1134" 
d="M1071 1765l31 -442q3 -43 -41 -43h-668l8 -1239q0 -41 -41 -41h-176q-41 0 -41 41l7 1417q0 41 40 41h676l6 264q0 41 41 41h117q38 0 41 -39z" />
    <glyph glyph-name="gheupturncy" unicode="&#x491;" horiz-adv-x="1015" 
d="M952 1090l13 -166q0 -43 -41 -43h-539l6 -840q0 -41 -41 -41h-170q-41 0 -41 41l8 1018q0 41 41 41h553l7 219q0 41 40 41h107q38 0 41 -39l16 -221v-10z" />
    <glyph glyph-name="Zedescendercy" unicode="&#x498;" horiz-adv-x="1314" 
d="M1223 434q0 -86 -29.5 -162t-88 -139.5t-155 -104.5t-221.5 -51l-31 -96q60 -13 100 -57t40 -115q0 -83 -58 -137.5t-162 -54.5q-64 0 -124 28q-33 17 -23 54l14 45q11 40 54 24q47 -18 79 -18q28 0 49 16.5t21 36.5q0 29 -25 48t-83 18h-9q-47 0 -34 47l49 161
q-212 18 -340 131.5t-152 262.5q-3 20 7.5 31.5t31.5 11.5h162q34 0 43 -37q49 -189 324 -189q156 0 242.5 68.5t86.5 192.5q0 122 -86 180.5t-284 58.5h-123q-41 0 -41 41v119q0 41 41 41h123q329 0 329 213q0 101 -77.5 162t-217.5 61q-236 0 -303 -192q-11 -35 -45 -35
h-145q-46 0 -37 45q19 76 59.5 143.5t105 125t163 91t219.5 33.5q124 0 223 -35t160 -94t93 -131.5t32 -151.5q0 -104 -54 -189.5t-165 -135.5q133 -49 197.5 -143.5t64.5 -221.5z" />
    <glyph glyph-name="zedescendercy" unicode="&#x499;" horiz-adv-x="1105" 
d="M1030 303q0 -129 -107.5 -222t-301.5 -110l-29 -90q60 -13 99.5 -57t39.5 -115q0 -83 -58 -137.5t-161 -54.5q-65 0 -125 28q-32 17 -22 54l14 45q11 40 53 24q46 -18 80 -18q28 0 49 16.5t21 36.5q0 29 -25.5 48t-83.5 18h-8q-48 0 -35 47l47 155q-163 14 -267 94
t-126 183q-4 20 6 31.5t31 11.5h155q32 0 48 -31q52 -94 227 -94q115 0 177.5 38t62.5 109q0 76 -63 114t-208 38h-92q-41 0 -41 41v108q0 41 41 41h92q228 0 228 152q0 64 -54.5 98.5t-154.5 34.5q-151 0 -205 -92q-19 -31 -49 -31h-142q-22 0 -31.5 12.5t-2.5 32.5
q18 53 52.5 99t89 86t136 63t180.5 23q176 0 292 -92.5t116 -215.5q0 -81 -44.5 -148.5t-135.5 -105.5q235 -66 235 -268z" />
    <glyph glyph-name="shhacy" unicode="&#x4bb;" horiz-adv-x="1214" 
d="M387 950h19q110 170 311 170q162 0 257.5 -108.5t96.5 -302.5l4 -668q0 -41 -41 -41h-172q-41 0 -41 41l6 606q1 122 -49 182t-143 60q-119 0 -188.5 -92.5t-59.5 -272.5l4 -483q0 -41 -41 -41h-170q-41 0 -41 41l8 1458q0 41 41 41h154q41 0 41 -41z" />
    <glyph glyph-name="Palochkacy" unicode="&#x4c0;" horiz-adv-x="788" 
d="M514 1458l10 -1417q0 -41 -41 -41h-176q-41 0 -41 41l6 1417q0 41 41 41h160q41 0 41 -41z" />
    <glyph glyph-name="adieresiscy" unicode="&#x4d3;" horiz-adv-x="1179" 
d="M530 1501v-153q0 -41 -41 -41h-127q-40 0 -40 41v153q0 41 40 41h127q41 0 41 -41zM858 1501v-153q0 -41 -41 -41h-127q-41 0 -41 41v153q0 41 41 41h127q41 0 41 -41zM602 1133q197 0 313.5 -104t116.5 -288l8 -700q0 -41 -41 -41h-161q-41 0 -41 41l2 125h-17
q-57 -87 -153.5 -138t-216.5 -51q-150 0 -241 82.5t-91 229.5q0 171 138.5 259t445.5 124q135 15 135 108q0 65 -58.5 106.5t-154.5 41.5q-162 0 -213 -123q-14 -33 -47 -33h-146q-22 0 -32.5 10t-6.5 27q39 149 158 236.5t303 87.5zM797 516l-11 6q-59 -20 -143 -33
q-167 -27 -247.5 -68t-80.5 -118q0 -55 39.5 -86t114.5 -31q73 0 137.5 26t106.5 67t65 89t21 93z" />
    <glyph glyph-name="Aiecy" unicode="&#x4d4;" horiz-adv-x="2004" 
d="M1260 1282v-391h528q41 0 41 -41v-137q0 -41 -41 -41h-528v-453h612q41 0 41 -41v-137q0 -41 -41 -41h-813q-41 0 -41 41v395h-490l-229 -407q-17 -29 -49 -29h-172q-25 0 -33 13.5t4 35.5l811 1424q17 28 49 28h965q41 0 41 -41v-137q0 -41 -41 -41h-614zM1018 655v650
l-367 -650h367z" />
    <glyph glyph-name="aiecy" unicode="&#x4d5;" horiz-adv-x="1900" 
d="M1323 1135q152 0 260.5 -74.5t159.5 -197.5t49 -279q0 -33 -2 -49q0 -39 -41 -39h-709q9 -158 89 -237t198 -79q72 0 118.5 27t86.5 90q17 29 49 29h145q23 0 32.5 -12.5t0.5 -34.5q-63 -152 -179.5 -232t-272.5 -80q-129 0 -236.5 60.5t-175.5 169.5h-18
q-65 -97 -191 -158.5t-274 -61.5q-151 0 -242 82t-92 230q0 185 159.5 277.5t493.5 117.5l66 4v92q0 65 -57.5 106.5t-153.5 41.5q-161 0 -215 -123q-14 -33 -47 -33h-146q-22 0 -32.5 12t-4.5 33q43 146 160.5 231t298.5 85q244 0 361 -154q68 75 161.5 115.5t200.5 40.5z
M1055 684h489q0 99 -65 168.5t-176 69.5q-54 0 -97.5 -19.5t-72.5 -54.5t-47.5 -75t-30.5 -89zM799 510l-60 -4q-227 -17 -325.5 -68t-98.5 -135q0 -55 38.5 -87t113.5 -32q72 0 136.5 30t105.5 75.5t64.5 96t23.5 93.5z" />
    <glyph glyph-name="Zhedieresiscy" unicode="&#x4dc;" horiz-adv-x="2211" 
d="M1051 1903v-154q0 -41 -41 -41h-127q-41 0 -41 41v154q0 41 41 41h127q41 0 41 -41zM1378 1903v-154q0 -41 -41 -41h-127q-41 0 -41 41v154q0 41 41 41h127q41 0 41 -41zM1479 776l571 -727q15 -20 8 -34.5t-33 -14.5h-215q-30 0 -49 25l-489 622h-43l4 -606
q0 -41 -41 -41h-174q-41 0 -41 41l2 606h-39l-489 -622q-19 -25 -50 -25h-215q-26 0 -32.5 14.5t8.5 34.5l571 727l-586 672q-17 22 -10 36.5t35 14.5h199q32 0 51 -22l518 -607h41l2 588q0 41 41 41h160q41 0 41 -41l4 -588h43l518 607q19 22 51 22h199q28 0 34.5 -14.5
t-10.5 -36.5z" />
    <glyph glyph-name="zhedieresiscy" unicode="&#x4dd;" horiz-adv-x="1787" 
d="M842 1501v-153q0 -41 -41 -41h-127q-41 0 -41 41v153q0 41 41 41h127q41 0 41 -41zM1169 1501v-153q0 -41 -41 -41h-127q-40 0 -40 41v153q0 41 40 41h127q41 0 41 -41zM1257 563l441 -512q17 -22 10 -36.5t-33 -14.5h-225q-32 0 -49 25l-359 450h-30l4 -434
q0 -41 -41 -41h-166q-41 0 -41 41l4 434h-27l-358 -450q-17 -25 -49 -25h-225q-26 0 -33 14.5t10 36.5l440 512l-436 486q-18 20 -11 35.5t34 15.5h213q31 0 51 -23l364 -438h29l4 420q0 41 41 41h148q41 0 41 -41l4 -420h30l367 438q20 23 51 23h211q27 0 34 -15.5
t-11 -35.5z" />
    <glyph glyph-name="Zedieresiscy" unicode="&#x4de;" horiz-adv-x="1314" 
d="M606 1901v-154q0 -41 -41 -41h-127q-41 0 -41 41v154q0 41 41 41h127q41 0 41 -41zM934 1901v-154q0 -41 -41 -41h-127q-41 0 -41 41v154q0 41 41 41h127q41 0 41 -41zM961 799q133 -49 197.5 -143.5t64.5 -221.5q0 -93 -34 -173.5t-101 -145.5t-179 -102.5t-256 -37.5
q-125 0 -228 34t-170.5 91t-108 126t-52.5 145q-3 20 7.5 31.5t31.5 11.5h162q34 0 43 -37q49 -189 324 -189q156 0 242.5 68.5t86.5 192.5q0 122 -86 180.5t-284 58.5h-123q-41 0 -41 41v119q0 41 41 41h123q329 0 329 213q0 101 -77.5 162t-217.5 61q-236 0 -303 -192
q-11 -35 -45 -35h-145q-46 0 -37 45q19 76 59.5 143.5t105 125t163 91t219.5 33.5q124 0 223 -35t160 -94t93 -131.5t32 -151.5q0 -104 -54 -189.5t-165 -135.5z" />
    <glyph glyph-name="zedieresiscy" unicode="&#x4df;" horiz-adv-x="1105" 
d="M502 1501v-153q0 -41 -41 -41h-127q-41 0 -41 41v153q0 41 41 41h127q41 0 41 -41zM829 1501v-153q0 -41 -41 -41h-126q-41 0 -41 41v153q0 41 41 41h126q41 0 41 -41zM795 571q235 -66 235 -268q0 -141 -128.5 -238.5t-356.5 -97.5q-190 0 -313 83.5t-148 197.5
q-4 20 6 31.5t31 11.5h155q32 0 48 -31q52 -94 227 -94q115 0 177.5 38t62.5 109q0 76 -63 114t-208 38h-92q-41 0 -41 41v108q0 41 41 41h92q228 0 228 152q0 64 -54.5 98.5t-154.5 34.5q-151 0 -205 -92q-19 -31 -49 -31h-142q-22 0 -31.5 12.5t-2.5 32.5q18 53 52.5 99
t89 86t136 63t180.5 23q176 0 292 -92.5t116 -215.5q0 -81 -44.5 -148.5t-135.5 -105.5z" />
    <glyph glyph-name="Imacroncy" unicode="&#x4e2;" horiz-adv-x="1527" 
d="M1036 1864v-99q0 -41 -41 -41h-440q-41 0 -41 41v99q0 41 41 41h440q41 0 41 -41zM1112 1499h234q40 0 40 -41l-8 -1417q0 -41 -41 -41h-155q-41 0 -41 41l-6 1122l-652 -1134q-17 -29 -49 -29h-244q-40 0 -40 41l-9 1417q0 41 41 41h172q41 0 41 -41l-6 -1169l674 1181
q17 29 49 29z" />
    <glyph glyph-name="imacroncy" unicode="&#x4e3;" horiz-adv-x="1284" 
d="M915 1460v-98q0 -41 -41 -41h-440q-41 0 -41 41v98q0 41 41 41h440q41 0 41 -41zM1104 0h-160q-41 0 -41 41l6 745l-460 -759q-18 -27 -50 -27h-219q-41 0 -41 41l8 1018q0 41 41 41h144q41 0 41 -41l6 -740l455 752q17 29 49 29h213q41 0 41 -41l8 -1018q0 -41 -41 -41z
" />
    <glyph glyph-name="Idieresiscy" unicode="&#x4e4;" horiz-adv-x="1527" 
d="M723 1901v-154q0 -41 -41 -41h-127q-41 0 -41 41v154q0 41 41 41h127q41 0 41 -41zM1051 1901v-154q0 -41 -41 -41h-127q-41 0 -41 41v154q0 41 41 41h127q41 0 41 -41zM1112 1499h234q40 0 40 -41l-8 -1417q0 -41 -41 -41h-155q-41 0 -41 41l-6 1122l-652 -1134
q-17 -29 -49 -29h-244q-40 0 -40 41l-9 1417q0 41 41 41h172q41 0 41 -41l-6 -1169l674 1181q17 29 49 29z" />
    <glyph glyph-name="idieresiscy" unicode="&#x4e5;" horiz-adv-x="1284" 
d="M602 1497v-154q0 -40 -41 -40h-127q-41 0 -41 40v154q0 41 41 41h127q41 0 41 -41zM930 1497v-154q0 -40 -41 -40h-127q-41 0 -41 40v154q0 41 41 41h127q41 0 41 -41zM1104 0h-160q-41 0 -41 41l6 745l-460 -759q-18 -27 -50 -27h-219q-41 0 -41 41l8 1018q0 41 41 41
h144q41 0 41 -41l6 -740l455 752q17 29 49 29h213q41 0 41 -41l8 -1018q0 -41 -41 -41z" />
    <glyph glyph-name="Odieresiscy" unicode="&#x4e6;" horiz-adv-x="1634" 
d="M764 1913v-154q0 -41 -41 -41h-127q-41 0 -41 41v154q0 41 41 41h127q41 0 41 -41zM1092 1913v-154q0 -41 -41 -41h-127q-41 0 -41 41v154q0 41 41 41h127q41 0 41 -41zM829 1532q152 0 284 -55t226.5 -153.5t148.5 -240.5t54 -309q0 -229 -96 -414t-264.5 -289
t-374.5 -104q-152 0 -284.5 58t-228 160t-150 248.5t-54.5 316.5q0 226 97 405.5t265.5 278t376.5 98.5zM811 1317q-102 0 -188.5 -36t-151 -104t-101 -173.5t-36.5 -237.5q0 -268 137 -425t352 -157q101 0 188 38.5t151 109.5t101 179t37 241q0 266 -136.5 415.5
t-352.5 149.5z" />
    <glyph glyph-name="odieresiscy" unicode="&#x4e7;" horiz-adv-x="1226" 
d="M561 1501v-153q0 -41 -41 -41h-127q-41 0 -41 41v153q0 41 41 41h127q41 0 41 -41zM889 1501v-153q0 -41 -41 -41h-127q-41 0 -41 41v153q0 41 41 41h127q41 0 41 -41zM623 1133q150 0 269.5 -71t188 -201.5t68.5 -297.5q0 -169 -71.5 -306t-196 -213.5t-277.5 -76.5
q-227 0 -376.5 163t-149.5 415q0 128 41.5 237.5t114 186.5t173.5 120.5t216 43.5zM596 922q-124 0 -201.5 -96t-77.5 -259q0 -173 90 -279t222 -106q123 0 200.5 97t77.5 258q0 176 -88.5 280.5t-222.5 104.5z" />
    <glyph glyph-name="Umacroncy" unicode="&#x4ee;" horiz-adv-x="1298" 
d="M899 1864v-99q0 -41 -41 -41h-440q-41 0 -41 41v99q0 41 41 41h440q41 0 41 -41zM1061 1499h164q51 0 32 -47l-475 -1073q-62 -141 -148 -226.5t-184.5 -119t-228.5 -33.5h-84q-41 0 -41 41v131q0 41 41 41h39q121 0 205.5 40t142.5 140l-481 1059q-11 20 -2.5 33.5
t33.5 13.5h162q34 0 49 -31l354 -798h14l359 798q16 31 49 31z" />
    <glyph glyph-name="umacroncy" unicode="&#x4ef;" horiz-adv-x="1136" 
d="M836 1464v-98q0 -41 -41 -41h-441q-41 0 -41 41v98q0 41 41 41h441q41 0 41 -41zM901 1100h148q48 0 32 -47l-389 -1143q-67 -196 -182.5 -278.5t-312.5 -82.5h-56q-41 0 -41 41v131q0 41 39 41q130 0 201.5 41t108.5 134l-394 1116q-7 22 2 34.5t31 12.5h150
q36 0 45 -33l268 -797h18l285 797q11 33 47 33z" />
    <glyph glyph-name="Udieresiscy" unicode="&#x4f0;" horiz-adv-x="1298" 
d="M586 1901v-154q0 -41 -41 -41h-127q-41 0 -41 41v154q0 41 41 41h127q41 0 41 -41zM913 1901v-154q0 -41 -41 -41h-127q-40 0 -40 41v154q0 41 40 41h127q41 0 41 -41zM1061 1499h164q51 0 32 -47l-475 -1073q-62 -141 -148 -226.5t-184.5 -119t-228.5 -33.5h-84
q-41 0 -41 41v131q0 41 41 41h39q121 0 205.5 40t142.5 140l-481 1059q-11 20 -2.5 33.5t33.5 13.5h162q34 0 49 -31l354 -798h14l359 798q16 31 49 31z" />
    <glyph glyph-name="udieresiscy" unicode="&#x4f1;" horiz-adv-x="1136" 
d="M522 1501v-153q0 -41 -41 -41h-127q-41 0 -41 41v153q0 41 41 41h127q41 0 41 -41zM850 1501v-153q0 -41 -41 -41h-127q-41 0 -41 41v153q0 41 41 41h127q41 0 41 -41zM901 1100h148q48 0 32 -47l-389 -1143q-67 -196 -182.5 -278.5t-312.5 -82.5h-56q-41 0 -41 41v131
q0 41 39 41q130 0 201.5 41t108.5 134l-394 1116q-7 22 2 34.5t31 12.5h150q36 0 45 -33l268 -797h18l285 797q11 33 47 33z" />
    <glyph glyph-name="Chedieresiscy" unicode="&#x4f4;" horiz-adv-x="1443" 
d="M635 1898v-153q0 -41 -41 -41h-127q-41 0 -41 41v153q0 41 41 41h127q41 0 41 -41zM963 1898v-153q0 -41 -41 -41h-127q-41 0 -41 41v153q0 41 41 41h127q41 0 41 -41zM1262 0h-177q-41 0 -41 41l5 569q-190 -155 -445 -155q-225 0 -370 141.5t-144 392.5l6 469
q0 41 41 41h158q41 0 41 -41l2 -454q0 -159 82.5 -239.5t232.5 -78.5q221 3 396 172l4 600q0 41 41 41h159q41 0 41 -41l9 -1417q0 -41 -41 -41z" />
    <glyph glyph-name="chedieresiscy" unicode="&#x4f5;" horiz-adv-x="1155" 
d="M492 1501v-153q0 -41 -41 -41h-127q-41 0 -41 41v153q0 41 41 41h127q41 0 41 -41zM819 1501v-153q0 -41 -41 -41h-127q-41 0 -41 41v153q0 41 41 41h127q41 0 41 -41zM975 0h-170q-41 0 -41 41l2 328q-134 -95 -311 -95t-277.5 107.5t-99.5 302.5l4 375q0 41 41 41h156
q40 0 40 -41l-4 -316q-1 -120 50 -179.5t149 -59.5q151 0 254 98l4 457q0 41 41 41h154q41 0 41 -41l8 -1018q0 -41 -41 -41z" />
    <glyph glyph-name="Bdotbelow" unicode="&#x1e04;" horiz-adv-x="1417" 
d="M1126 791q97 -55 148 -142.5t51 -195.5q0 -193 -135.5 -323t-355.5 -130h-652q-41 0 -41 41l9 1417q0 41 40 41h582q214 0 343.5 -114.5t129.5 -294.5t-119 -299zM393 1286l2 -416h389q104 0 162 53t58 150q0 99 -69.5 156t-191.5 57h-350zM399 213h416q131 0 199.5 56.5
t68.5 158.5q0 106 -78 166.5t-223 60.5h-385zM571 -340v164q0 41 41 41h162q41 0 41 -41v-164q0 -41 -41 -41h-162q-41 0 -41 41z" />
    <glyph glyph-name="bdotbelow" unicode="&#x1e05;" horiz-adv-x="1263" 
d="M664 1133q233 0 377.5 -164.5t144.5 -431.5q0 -249 -126.5 -409.5t-326.5 -160.5q-101 0 -189.5 44.5t-144.5 133.5h-14v-104q0 -41 -41 -41h-164q-41 0 -41 41l8 1458q0 41 41 41h148q41 0 41 -41l4 -471h12q97 105 271 105zM670 180q132 0 203 95t71 266q0 183 -76 282
t-202 99q-131 0 -215 -100t-80 -277q0 -178 83.5 -271.5t215.5 -93.5zM539 -340v164q0 41 41 41h161q41 0 41 -41v-164q0 -41 -41 -41h-161q-41 0 -41 41z" />
    <glyph glyph-name="Ddotbelow" unicode="&#x1e0c;" horiz-adv-x="1544" 
d="M190 1499h527q356 0 545.5 -195.5t189.5 -531.5q0 -133 -29.5 -250t-89.5 -213t-146.5 -164.5t-206.5 -106.5t-263 -38h-535q-41 0 -41 41l9 1417q0 41 40 41zM401 215h301q242 0 375 139.5t133 390.5q0 264 -132.5 402.5t-377.5 138.5h-307zM602 -340v164q0 41 41 41
h162q41 0 41 -41v-164q0 -41 -41 -41h-162q-41 0 -41 41z" />
    <glyph glyph-name="ddotbelow" unicode="&#x1e0d;" horiz-adv-x="1261" 
d="M1081 0h-172q-41 0 -41 41v104h-14q-51 -89 -137 -133.5t-189 -44.5q-131 0 -234 73.5t-159.5 203.5t-56.5 293q0 267 144.5 431.5t377.5 164.5q161 0 266 -105h11l2 471q0 41 41 41h153q41 0 41 -41l8 -1458q0 -41 -41 -41zM596 182q129 0 212.5 101t80.5 278
q3 177 -80.5 269t-214.5 92q-134 0 -205.5 -96.5t-71.5 -268.5q0 -180 77 -277.5t202 -97.5zM479 -340v164q0 41 41 41h162q41 0 41 -41v-164q0 -41 -41 -41h-162q-41 0 -41 41z" />
    <glyph glyph-name="Ldotbelow" unicode="&#x1e36;" 
d="M399 219h731q41 0 41 -41v-137q0 -41 -41 -41h-948q-41 0 -41 41l9 1417q0 41 40 41h160q41 0 41 -41zM498 -340v164q0 41 41 41h161q41 0 41 -41v-164q0 -41 -41 -41h-161q-41 0 -41 41z" />
    <glyph glyph-name="ldotbelow" unicode="&#x1e37;" horiz-adv-x="608" 
d="M422 1499l8 -1458q0 -41 -41 -41h-170q-41 0 -41 41l8 1458q0 41 41 41h154q41 0 41 -41zM426 -176v-164q0 -41 -41 -41h-162q-41 0 -41 41v164q0 41 41 41h162q41 0 41 -41z" />
    <glyph glyph-name="Macute" unicode="&#x1e3e;" horiz-adv-x="1828" 
d="M1178 1911l-203 -254q-17 -25 -49 -25h-68q-25 0 -33 13.5t4 35.5l134 250q17 29 49 29h143q26 0 33 -14.5t-10 -34.5zM1647 0h-166q-41 0 -41 41l-19 1165l-377 -1173q-9 -33 -45 -33h-161q-37 0 -45 35l-385 1206l-19 -1200q0 -41 -41 -41h-166q-42 0 -39 41l47 1417
q3 41 43 41h271q36 0 45 -33l371 -1140l368 1140q9 33 45 33h262q40 0 43 -41l48 -1417q3 -41 -39 -41z" />
    <glyph glyph-name="macute" unicode="&#x1e3f;" horiz-adv-x="1830" 
d="M1225 1513l-203 -253q-17 -25 -49 -25h-68q-25 0 -32.5 13.5t4.5 35.5l133 250q17 29 49 29h143q26 0 33 -15t-10 -35zM1343 1133q163 0 255.5 -111t93.5 -313l6 -668q0 -41 -41 -41h-172q-41 0 -41 41l4 606q3 256 -174 256q-111 0 -177.5 -96.5t-56.5 -282.5l4 -483
q0 -41 -40 -41h-173q-40 0 -40 41l4 606q3 256 -174 256q-49 0 -91.5 -20.5t-77.5 -63t-52.5 -118.5t-12.5 -177l4 -483q0 -41 -41 -41h-172q-41 0 -41 41l10 1018q0 41 41 41h154q41 0 41 -41l2 -109h10q130 183 310 183q209 0 288 -201h15q72 102 152.5 151.5t182.5 49.5z
" />
    <glyph glyph-name="Ndotaccent" unicode="&#x1e44;" horiz-adv-x="1527" 
d="M883 1911v-154q0 -41 -41 -41h-154q-41 0 -41 41v154q0 41 41 41h154q41 0 41 -41zM1378 1458l8 -1417q0 -41 -40 -41h-234q-32 0 -49 29l-674 1181l6 -1169q0 -41 -41 -41h-172q-41 0 -41 41l9 1417q0 41 40 41h244q32 0 49 -29l652 -1134l6 1122q0 41 41 41h155
q41 0 41 -41z" />
    <glyph glyph-name="ndotaccent" unicode="&#x1e45;" 
d="M725 1499v-153q0 -41 -41 -41h-154q-41 0 -41 41v153q0 41 41 41h154q41 0 41 -41zM721 1133q164 0 264 -113t100 -311v-668q0 -41 -41 -41h-172q-41 0 -41 41v606q0 125 -52 190.5t-144 65.5q-119 0 -188.5 -97t-59.5 -282l4 -483q0 -41 -41 -41h-170q-41 0 -41 41
l8 1018q0 41 41 41h154q41 0 41 -41l2 -109h16q117 183 320 183z" />
    <glyph glyph-name="Ndotbelow" unicode="&#x1e46;" horiz-adv-x="1527" 
d="M1378 1458l8 -1417q0 -41 -40 -41h-234q-32 0 -49 29l-674 1181l6 -1169q0 -41 -41 -41h-172q-41 0 -41 41l9 1417q0 41 40 41h244q32 0 49 -29l652 -1134l6 1122q0 41 41 41h155q41 0 41 -41zM641 -340v164q0 41 41 41h162q41 0 41 -41v-164q0 -41 -41 -41h-162
q-41 0 -41 41z" />
    <glyph glyph-name="ndotbelow" unicode="&#x1e47;" 
d="M721 1133q164 0 264 -113t100 -311v-668q0 -41 -41 -41h-172q-41 0 -41 41v606q0 125 -52 190.5t-144 65.5q-119 0 -188.5 -97t-59.5 -282l4 -483q0 -41 -41 -41h-170q-41 0 -41 41l8 1018q0 41 41 41h154q41 0 41 -41l2 -109h16q117 183 320 183zM727 -176v-164
q0 -41 -41 -41h-162q-41 0 -41 41v164q0 41 41 41h162q41 0 41 -41z" />
    <glyph glyph-name="Sdotbelow" unicode="&#x1e62;" horiz-adv-x="1384" 
d="M698 1532q211 0 355 -104.5t204 -274.5q8 -22 -1.5 -34.5t-32.5 -12.5h-152q-32 0 -49 29q-52 86 -139.5 133t-204.5 47q-135 0 -203.5 -49.5t-68.5 -130.5t75.5 -134t270.5 -112l65 -21q254 -78 364.5 -196.5t110.5 -276.5q0 -202 -152.5 -315t-408.5 -113
q-113 0 -211.5 25.5t-167.5 66.5t-122.5 96.5t-85 112t-46.5 115.5q-9 45 37 45h162q31 0 47 -31q110 -211 399 -211q299 0 299 176q0 86 -80 152t-270 129l-74 27q-227 74 -341 173.5t-121 254.5q-4 131 69.5 231t197 151.5t275.5 51.5zM813 -176v-164q0 -41 -41 -41h-162
q-41 0 -41 41v164q0 41 41 41h162q41 0 41 -41z" />
    <glyph glyph-name="sdotbelow" unicode="&#x1e63;" horiz-adv-x="1105" 
d="M553 1133q94 0 174.5 -27t134.5 -71.5t89 -95.5t50 -105q6 -20 -4 -31.5t-32 -11.5h-150q-31 0 -51 26q-79 105 -223 105q-81 0 -130 -34.5t-49 -86.5q0 -42 48.5 -69.5t171.5 -63.5l86 -25q192 -54 275 -132.5t83 -191.5q0 -159 -122.5 -255.5t-323.5 -96.5
q-102 0 -186.5 26t-143 71.5t-97.5 101t-61 121.5q-6 20 3.5 32.5t31.5 12.5h168q30 0 49 -29q40 -67 100 -95t148 -28q188 0 188 117q0 48 -50 84t-173 70l-82 22q-171 47 -260.5 119t-89.5 194q0 150 122.5 248.5t305.5 98.5zM676 -176v-164q0 -41 -41 -41h-162
q-41 0 -41 41v164q0 41 41 41h162q41 0 41 -41z" />
    <glyph glyph-name="Tdotbelow" unicode="&#x1e6c;" horiz-adv-x="1247" 
d="M1214 1458v-137q0 -41 -40 -41h-429l9 -1239q0 -41 -41 -41h-176q-41 0 -41 41l8 1239h-428q-41 0 -41 41v137q0 41 41 41h1098q40 0 40 -41zM502 -340v164q0 41 41 41h162q40 0 40 -41v-164q0 -41 -40 -41h-162q-41 0 -41 41z" />
    <glyph glyph-name="tdotbelow" unicode="&#x1e6d;" horiz-adv-x="751" 
d="M705 1059v-119q0 -41 -41 -41h-177l5 -858q0 -41 -41 -41h-170q-41 0 -41 41l4 858h-148q-41 0 -41 41v119q0 41 41 41h150l2 377q0 41 41 41h153q41 0 41 -41l2 -377h179q41 0 41 -41zM233 -340v164q0 41 41 41h162q41 0 41 -41v-164q0 -41 -41 -41h-162q-41 0 -41 41z
" />
    <glyph glyph-name="Wgrave" unicode="&#x1e80;" horiz-adv-x="2041" 
d="M1104 1647h-68q-33 0 -49 24l-203 254q-17 20 -10 34.5t33 14.5h143q32 0 49 -28l134 -250q12 -22 4 -35.5t-33 -13.5zM1800 1499h166q22 0 31.5 -12.5t3.5 -32.5l-385 -1419q-9 -35 -47 -35h-205q-36 0 -45 35l-287 1112h-22l-285 -1112q-9 -35 -45 -35h-205
q-38 0 -47 35l-387 1419q-6 20 3.5 32.5t31.5 12.5h166q35 0 47 -35l284 -1061h17l280 1061q12 35 48 35h206q36 0 45 -35l279 -1061h18l287 1061q9 35 47 35z" />
    <glyph glyph-name="wgrave" unicode="&#x1e81;" horiz-adv-x="1611" 
d="M887 1235h-68q-32 0 -49 25l-203 253q-17 20 -10 35t33 15h143q32 0 49 -29l133 -250q12 -22 4.5 -35.5t-32.5 -13.5zM1380 1100h144q22 0 31.5 -12.5t3.5 -32.5l-269 -1020q-12 -35 -47 -35h-229q-36 0 -45 35l-158 608h-14l-154 -608q-9 -35 -45 -35h-233q-37 0 -46 35
l-268 1020q-12 45 35 45h150q36 0 45 -35l194 -807h27l198 807q9 35 45 35h129q37 0 46 -35l194 -807h25l196 807q9 35 45 35z" />
    <glyph glyph-name="Wacute" unicode="&#x1e82;" horiz-adv-x="2041" 
d="M1286 1925l-203 -254q-16 -24 -49 -24h-67q-25 0 -33 13.5t4 35.5l133 250q17 28 49 28h144q26 0 32.5 -14.5t-10.5 -34.5zM1800 1499h166q22 0 31.5 -12.5t3.5 -32.5l-385 -1419q-9 -35 -47 -35h-205q-36 0 -45 35l-287 1112h-22l-285 -1112q-9 -35 -45 -35h-205
q-38 0 -47 35l-387 1419q-6 20 3.5 32.5t31.5 12.5h166q35 0 47 -35l284 -1061h17l280 1061q12 35 48 35h206q36 0 45 -35l279 -1061h18l287 1061q9 35 47 35z" />
    <glyph glyph-name="wacute" unicode="&#x1e83;" horiz-adv-x="1611" 
d="M1069 1513l-203 -253q-17 -25 -49 -25h-67q-25 0 -33 13.5t4 35.5l133 250q17 29 49 29h144q26 0 32.5 -15t-10.5 -35zM1380 1100h144q22 0 31.5 -12.5t3.5 -32.5l-269 -1020q-12 -35 -47 -35h-229q-36 0 -45 35l-158 608h-14l-154 -608q-9 -35 -45 -35h-233
q-37 0 -46 35l-268 1020q-12 45 35 45h150q36 0 45 -35l194 -807h27l198 807q9 35 45 35h129q37 0 46 -35l194 -807h25l196 807q9 35 45 35z" />
    <glyph glyph-name="Wdieresis" unicode="&#x1e84;" horiz-adv-x="2041" 
d="M971 1913v-154q0 -41 -41 -41h-127q-41 0 -41 41v154q0 41 41 41h127q41 0 41 -41zM1298 1913v-154q0 -41 -41 -41h-127q-40 0 -40 41v154q0 41 40 41h127q41 0 41 -41zM1800 1499h166q22 0 31.5 -12.5t3.5 -32.5l-385 -1419q-9 -35 -47 -35h-205q-36 0 -45 35l-287 1112
h-22l-285 -1112q-9 -35 -45 -35h-205q-38 0 -47 35l-387 1419q-6 20 3.5 32.5t31.5 12.5h166q35 0 47 -35l284 -1061h17l280 1061q12 35 48 35h206q36 0 45 -35l279 -1061h18l287 1061q9 35 47 35z" />
    <glyph glyph-name="wdieresis" unicode="&#x1e85;" horiz-adv-x="1611" 
d="M754 1501v-153q0 -41 -41 -41h-127q-41 0 -41 41v153q0 41 41 41h127q41 0 41 -41zM1081 1501v-153q0 -41 -41 -41h-127q-41 0 -41 41v153q0 41 41 41h127q41 0 41 -41zM1380 1100h144q22 0 31.5 -12.5t3.5 -32.5l-269 -1020q-12 -35 -47 -35h-229q-36 0 -45 35l-158 608
h-14l-154 -608q-9 -35 -45 -35h-233q-37 0 -46 35l-268 1020q-12 45 35 45h150q36 0 45 -35l194 -807h27l198 807q9 35 45 35h129q37 0 46 -35l194 -807h25l196 807q9 35 45 35z" />
    <glyph glyph-name="Zdotbelow" unicode="&#x1e92;" horiz-adv-x="1376" 
d="M418 221h778q41 0 41 -41v-139q0 -41 -41 -41h-1053q-41 0 -41 41v115q0 33 27 67l770 1039v18h-711q-41 0 -41 41v137q0 41 41 41h988q41 0 41 -41v-108q0 -39 -25 -68l-774 -1046v-15zM549 -340v164q0 41 41 41h162q41 0 41 -41v-164q0 -41 -41 -41h-162q-41 0 -41 41z
" />
    <glyph glyph-name="zdotbelow" unicode="&#x1e93;" horiz-adv-x="999" 
d="M909 1059v-127v-2q0 -10 -22 -41l-525 -676v-12h519q41 0 41 -41v-119q0 -41 -41 -41h-762q-41 0 -41 41v127q10 27 20 41l543 676v14h-504q-41 0 -41 41v119q0 41 41 41h731q41 0 41 -41zM621 -176v-164q0 -41 -41 -41h-162q-41 0 -41 41v164q0 41 41 41h162
q41 0 41 -41z" />
    <glyph glyph-name="Adotbelow" unicode="&#x1ea0;" horiz-adv-x="1419" 
d="M1343 0h-169q-37 0 -48 33l-139 403h-551l-141 -403q-11 -33 -47 -33h-168q-23 0 -32.5 12.5t-2.5 34.5l522 1419q11 33 47 33h195q36 0 47 -33l522 -1419q7 -22 -2.5 -34.5t-32.5 -12.5zM911 655l-192 549h-12l-193 -549h397zM590 -340v164q0 41 41 41h162q41 0 41 -41
v-164q0 -41 -41 -41h-162q-41 0 -41 41z" />
    <glyph glyph-name="adotbelow" unicode="&#x1ea1;" horiz-adv-x="1179" 
d="M602 1133q197 0 313.5 -104t116.5 -288l8 -700q0 -41 -41 -41h-161q-41 0 -41 41l2 125h-17q-57 -87 -153.5 -138t-216.5 -51q-150 0 -241 82.5t-91 229.5q0 171 138.5 259t445.5 124q135 15 135 108q0 65 -58.5 106.5t-154.5 41.5q-162 0 -213 -123q-14 -33 -47 -33
h-146q-22 0 -32.5 10t-6.5 27q39 149 158 236.5t303 87.5zM797 516l-11 6q-59 -20 -143 -33q-167 -27 -247.5 -68t-80.5 -118q0 -55 39.5 -86t114.5 -31q73 0 137.5 26t106.5 67t65 89t21 93zM725 -176v-164q0 -41 -41 -41h-162q-41 0 -41 41v164q0 41 41 41h162
q41 0 41 -41z" />
    <glyph glyph-name="Edotbelow" unicode="&#x1eb8;" horiz-adv-x="1239" 
d="M393 1280l2 -389h627q41 0 41 -41v-137q0 -41 -41 -41h-625l2 -453h709q41 0 41 -41v-137q0 -41 -41 -41h-926q-41 0 -41 41l9 1417q0 41 40 41h918q41 0 41 -41v-137q0 -41 -41 -41h-715zM510 -340v164q0 41 41 41h162q41 0 41 -41v-164q0 -41 -41 -41h-162
q-41 0 -41 41z" />
    <glyph glyph-name="edotbelow" unicode="&#x1eb9;" horiz-adv-x="1175" 
d="M618 1135q124 0 220 -46.5t154 -128.5t85.5 -190t20.5 -235q-3 -39 -43 -39h-738q7 -160 90 -238t214 -78q73 0 124.5 27.5t90.5 89.5q17 29 49 29h145q23 0 32.5 -12.5t0.5 -34.5q-62 -151 -184 -231.5t-279 -80.5q-229 0 -375.5 158.5t-146.5 417.5q0 262 149 427
t391 165zM598 922q-211 0 -268 -238h522q-2 100 -68.5 169t-185.5 69zM709 -176v-164q0 -41 -41 -41h-162q-41 0 -41 41v164q0 41 41 41h162q41 0 41 -41z" />
    <glyph glyph-name="Etilde" unicode="&#x1ebc;" horiz-adv-x="1239" 
d="M545 1767q-47 0 -58 -63q-6 -39 -41 -39h-61q-42 0 -39 41q7 99 53.5 158t143.5 59q48 0 88.5 -21.5t63 -47t47 -47t44.5 -21.5q41 0 48 61q6 41 40 41h64q42 0 39 -41q-9 -92 -55 -154.5t-136 -62.5q-36 0 -66.5 14t-51 34t-39.5 40.5t-40.5 34.5t-43.5 14zM393 1280
l2 -389h627q41 0 41 -41v-137q0 -41 -41 -41h-625l2 -453h709q41 0 41 -41v-137q0 -41 -41 -41h-926q-41 0 -41 41l9 1417q0 41 40 41h918q41 0 41 -41v-137q0 -41 -41 -41h-715z" />
    <glyph glyph-name="etilde" unicode="&#x1ebd;" horiz-adv-x="1175" 
d="M485 1524q39 0 73 -14t57 -34.5t42 -41t37.5 -34.5t34.5 -14q40 0 47 62q6 41 41 41h64q42 0 39 -41q-9 -92 -55 -154.5t-136 -62.5q-36 0 -66.5 14t-51.5 34.5t-40 40.5t-40.5 34t-43.5 14q-46 0 -57 -63q-6 -39 -41 -39h-61q-42 0 -39 39q14 219 196 219zM618 1135
q124 0 220 -46.5t154 -128.5t85.5 -190t20.5 -235q-3 -39 -43 -39h-738q7 -160 90 -238t214 -78q73 0 124.5 27.5t90.5 89.5q17 29 49 29h145q23 0 32.5 -12.5t0.5 -34.5q-62 -151 -184 -231.5t-279 -80.5q-229 0 -375.5 158.5t-146.5 417.5q0 262 149 427t391 165zM598 922
q-211 0 -268 -238h522q-2 100 -68.5 169t-185.5 69z" />
    <glyph glyph-name="Idotbelow" unicode="&#x1eca;" horiz-adv-x="788" 
d="M514 1458l10 -1417q0 -41 -41 -41h-176q-41 0 -41 41l6 1417q0 41 41 41h160q41 0 41 -41zM516 -176v-164q0 -41 -41 -41h-162q-41 0 -41 41v164q0 41 41 41h162q41 0 41 -41z" />
    <glyph glyph-name="idotbelow" unicode="&#x1ecb;" horiz-adv-x="571" 
d="M406 1499v-153q0 -41 -41 -41h-154q-41 0 -41 41v153q0 41 41 41h154q41 0 41 -41zM403 1059l9 -1018q0 -41 -41 -41h-170q-41 0 -41 41l8 1018q0 41 41 41h153q41 0 41 -41zM408 -176v-164q0 -41 -41 -41h-162q-41 0 -41 41v164q0 41 41 41h162q41 0 41 -41z" />
    <glyph glyph-name="Odotbelow" unicode="&#x1ecc;" horiz-adv-x="1634" 
d="M829 1532q152 0 284 -55t226.5 -153.5t148.5 -240.5t54 -309q0 -229 -96 -414t-264.5 -289t-374.5 -104q-152 0 -284.5 58t-228 160t-150 248.5t-54.5 316.5q0 226 97 405.5t265.5 278t376.5 98.5zM811 1317q-102 0 -188.5 -36t-151 -104t-101 -173.5t-36.5 -237.5
q0 -268 137 -425t352 -157q101 0 188 38.5t151 109.5t101 179t37 241q0 266 -136.5 415.5t-352.5 149.5zM928 -176v-164q0 -41 -41 -41h-162q-41 0 -41 41v164q0 41 41 41h162q41 0 41 -41z" />
    <glyph glyph-name="odotbelow" unicode="&#x1ecd;" horiz-adv-x="1226" 
d="M623 1133q150 0 269.5 -71t188 -201.5t68.5 -297.5q0 -169 -71.5 -306t-196 -213.5t-277.5 -76.5q-227 0 -376.5 163t-149.5 415q0 128 41.5 237.5t114 186.5t173.5 120.5t216 43.5zM596 922q-124 0 -201.5 -96t-77.5 -259q0 -173 90 -279t222 -106q123 0 200.5 97
t77.5 258q0 176 -88.5 280.5t-222.5 104.5zM449 -176v-164q0 -41 -41 -41h-162q-41 0 -41 41v164q0 41 41 41h162q41 0 41 -41z" />
    <glyph glyph-name="Udotbelow" unicode="&#x1ee4;" horiz-adv-x="1542" 
d="M1397 1458l4 -811q1 -165 -46 -295t-132 -214t-200 -127.5t-253 -43.5q-283 0 -456.5 177.5t-172.5 502.5l4 811q0 41 41 41h160q41 0 41 -41l4 -784q3 -249 102.5 -369.5t282.5 -120.5q372 0 375 490l4 784q0 41 41 41h160q41 0 41 -41zM891 -176v-164q0 -41 -41 -41
h-162q-41 0 -41 41v164q0 41 41 41h162q41 0 41 -41z" />
    <glyph glyph-name="udotbelow" unicode="&#x1ee5;" horiz-adv-x="1210" 
d="M1061 1059l10 -1018q0 -41 -41 -41h-172q-42 0 -39 41l2 109h-16q-111 -183 -311 -183q-164 0 -260 116.5t-95 332.5l4 643q0 41 41 41h154q41 0 41 -41l4 -584q1 -144 49.5 -211t142.5 -67q116 0 184.5 95.5t61.5 282.5l6 484q0 41 41 41h152q41 0 41 -41zM737 -176
v-164q0 -41 -41 -41h-161q-41 0 -41 41v164q0 41 41 41h161q41 0 41 -41z" />
    <glyph glyph-name="Ygrave" unicode="&#x1ef2;" horiz-adv-x="1255" 
d="M709 1647h-68q-33 0 -49 24l-203 254q-17 20 -10 34.5t33 14.5h143q32 0 49 -28l133 -250q12 -22 4.5 -35.5t-32.5 -13.5zM754 604l6 -563q0 -41 -41 -41h-176q-41 0 -41 41l4 565l-459 844q-12 22 -4 35.5t33 13.5h178q32 0 49 -29l324 -612h16l320 612q17 29 49 29h168
q25 0 32.5 -13.5t-4.5 -35.5z" />
    <glyph glyph-name="ygrave" unicode="&#x1ef3;" horiz-adv-x="1136" 
d="M655 1235h-67q-32 0 -49 25l-203 253q-17 20 -10.5 35t32.5 15h144q32 0 49 -29l133 -250q12 -22 4 -35.5t-33 -13.5zM901 1100h148q48 0 32 -47l-503 -1471q-11 -33 -48 -33h-174q-22 0 -30.5 13t-1.5 35l125 342l-394 1114q-7 22 2 34.5t31 12.5h150q36 0 45 -33
l268 -797h16l287 797q11 33 47 33z" />
    <glyph glyph-name="Ydotbelow" unicode="&#x1ef4;" horiz-adv-x="1255" 
d="M754 604l6 -563q0 -41 -41 -41h-176q-41 0 -41 41l4 565l-459 844q-12 22 -4 35.5t33 13.5h178q32 0 49 -29l324 -612h16l320 612q17 29 49 29h168q25 0 32.5 -13.5t-4.5 -35.5zM508 -340v164q0 41 41 41h162q41 0 41 -41v-164q0 -41 -41 -41h-162q-41 0 -41 41z" />
    <glyph glyph-name="ydotbelow" unicode="&#x1ef5;" horiz-adv-x="1136" 
d="M901 1100h148q48 0 32 -47l-503 -1471q-11 -33 -48 -33h-174q-22 0 -30.5 13t-1.5 35l125 342l-394 1114q-7 22 2 34.5t31 12.5h150q36 0 45 -33l268 -797h16l287 797q11 33 47 33zM813 -340v164q0 41 41 41h162q41 0 41 -41v-164q0 -41 -41 -41h-162q-41 0 -41 41z" />
    <glyph glyph-name="Ytilde" unicode="&#x1ef8;" horiz-adv-x="1255" 
d="M528 1780q-46 0 -57 -64q-6 -39 -41 -39h-61q-42 0 -39 41q14 217 196 217q48 0 89 -21.5t63.5 -47t47 -47t44.5 -21.5q40 0 47 62q6 41 41 41h64q42 0 39 -41q-9 -92 -55 -155t-136 -63q-36 0 -66.5 14t-51.5 34.5t-40 41t-40.5 34.5t-43.5 14zM754 604l6 -563
q0 -41 -41 -41h-176q-41 0 -41 41l4 565l-459 844q-12 22 -4 35.5t33 13.5h178q32 0 49 -29l324 -612h16l320 612q17 29 49 29h168q25 0 32.5 -13.5t-4.5 -35.5z" />
    <glyph glyph-name="ytilde" unicode="&#x1ef9;" horiz-adv-x="1136" 
d="M475 1368q-46 0 -57 -63q-6 -39 -41 -39h-62q-42 0 -39 41q7 99 53.5 158t143.5 59q39 0 73 -14t57 -34.5t42 -41t37.5 -34.5t34.5 -14q40 0 47 62q6 41 41 41h63q42 0 39 -41q-9 -92 -54.5 -154.5t-135.5 -62.5q-36 0 -66.5 14t-51.5 34.5t-40 40.5t-40.5 34t-43.5 14z
M901 1100h148q48 0 32 -47l-503 -1471q-11 -33 -48 -33h-174q-22 0 -30.5 13t-1.5 35l125 342l-394 1114q-7 22 2 34.5t31 12.5h150q36 0 45 -33l268 -797h16l287 797q11 33 47 33z" />
    <glyph glyph-name="endash" unicode="&#x2013;" horiz-adv-x="1523" 
d="M1346 643v-131q0 -41 -41 -41h-1086q-41 0 -41 41v131q0 41 41 41h1086q41 0 41 -41z" />
    <glyph glyph-name="emdash" unicode="&#x2014;" horiz-adv-x="1912" 
d="M1737 643v-131q0 -41 -41 -41h-1477q-41 0 -41 41v131q0 41 41 41h1477q41 0 41 -41z" />
    <glyph glyph-name="quoteleft" unicode="&#x2018;" horiz-adv-x="704" 
d="M260 913v144q0 160 38 261.5t124 184.5q24 24 57 8l17 -10q38 -18 12 -55q-44 -62 -61 -119t-2 -107t65 -81q31 -19 31 -47v-179q0 -41 -41 -41h-199q-41 0 -41 41z" />
    <glyph glyph-name="quoteright" unicode="&#x2019;" horiz-adv-x="534" 
d="M446 1468v-143q0 -159 -38 -259.5t-125 -184.5q-25 -28 -56 -9l-16 9q-38 17 -12 57q44 62 61 119t1.5 106.5t-66.5 79.5q-31 19 -31 47v178q0 41 41 41h201q40 0 40 -41z" />
    <glyph glyph-name="quotesinglbase" unicode="&#x201a;" horiz-adv-x="614" 
d="M528 209v-143q0 -160 -38 -262t-125 -185q-22 -25 -56 -8l-18 10q-38 18 -10 57q44 61 61 118t1 107t-67 81q-30 18 -30 47v178q0 41 41 41h200q41 0 41 -41z" />
    <glyph glyph-name="quotedblleft" unicode="&#x201c;" horiz-adv-x="1171" 
d="M258 913v144q0 159 38.5 260.5t125.5 185.5q22 25 55 8l19 -10q38 -18 10 -57q-44 -61 -61 -118t-1.5 -106.5t66.5 -80.5q31 -19 31 -47v-179q0 -41 -41 -41h-201q-41 0 -41 41zM725 913v144q0 159 38.5 260.5t125.5 185.5q22 25 55 8l19 -10q38 -18 10 -57
q-44 -61 -61 -118t-1.5 -106.5t66.5 -80.5q31 -19 31 -47v-179q0 -41 -41 -41h-201q-41 0 -41 41z" />
    <glyph glyph-name="quotedblright" unicode="&#x201d;" horiz-adv-x="1001" 
d="M446 1458v-143q0 -159 -38 -261t-123 -186q-25 -25 -58 -8l-16 10q-38 18 -12 56q44 62 61 119t1.5 107t-66.5 81q-31 19 -31 47v178q0 41 41 41h201q40 0 40 -41zM913 1458v-143q0 -159 -38 -261t-123 -186q-25 -25 -58 -8l-16 10q-38 18 -12 56q44 62 61 119t1.5 107
t-66.5 81q-31 19 -31 47v178q0 41 41 41h200q41 0 41 -41z" />
    <glyph glyph-name="quotedblbase" unicode="&#x201e;" horiz-adv-x="614" 
d="M287 250h200q41 0 41 -41v-143q0 -160 -38 -262t-125 -185q-22 -25 -56 -8l-18 10q-38 18 -10 57q44 61 61 118t1 107t-67 81q-30 18 -30 47v178q0 41 41 41z" />
    <glyph glyph-name="dagger" unicode="&#x2020;" horiz-adv-x="1349" 
d="M1104 657v-108q0 -41 -41 -41h-289l4 -926q0 -41 -41 -41h-127q-41 0 -41 41l6 926h-288q-41 0 -41 41v108q0 41 41 41h291l2 369q0 41 41 41h108q41 0 41 -41l2 -369h291q41 0 41 -41z" />
    <glyph glyph-name="daggerdbl" unicode="&#x2021;" horiz-adv-x="1349" 
d="M772 508v-315h291q41 0 41 -41v-109q0 -41 -41 -41h-291l2 -420q0 -41 -41 -41h-117q-41 0 -41 41l3 420h-291q-41 0 -41 41v109q0 41 41 41h291v315h-291q-41 0 -41 41v108q0 41 41 41h291l2 369q0 41 41 41h108q41 0 41 -41l2 -369h291q41 0 41 -41v-108q0 -41 -41 -41
h-291z" />
    <glyph glyph-name="bullet" unicode="&#x2022;" horiz-adv-x="1148" 
d="M575 918q134 0 229 -94.5t95 -229.5t-95 -229.5t-229 -94.5q-135 0 -230 94.5t-95 229.5t95 229.5t230 94.5z" />
    <glyph glyph-name="ellipsis" unicode="&#x2026;" horiz-adv-x="1951" 
d="M485 262v-176q0 -41 -41 -41h-198q-41 0 -41 41v176q0 41 41 41h198q41 0 41 -41zM1112 262v-176q0 -41 -41 -41h-201q-41 0 -41 41v176q0 41 41 41h201q41 0 41 -41zM1737 262v-176q0 -41 -41 -41h-199q-41 0 -41 41v176q0 41 41 41h199q41 0 41 -41z" />
    <glyph glyph-name="perthousand" unicode="&#x2030;" horiz-adv-x="2400" 
d="M410 1518q132 0 224.5 -94t92.5 -226t-92.5 -224.5t-224.5 -92.5t-226 92.5t-94 224.5t94 226t226 94zM1460 1446l-1014 -1421q-19 -25 -49 -25h-139q-26 0 -33.5 14.5t6.5 34.5l1018 1421q19 25 49 25h136q26 0 33 -14.5t-7 -34.5zM410 1337q-59 0 -99.5 -40.5
t-40.5 -98.5q0 -57 41 -98t99 -41q57 0 98 41t41 98q0 58 -41 98.5t-98 40.5zM1278 614q132 0 224.5 -92.5t92.5 -224.5t-92.5 -226t-224.5 -94t-226 94t-94 226t94 224.5t226 92.5zM1993 614q132 0 224.5 -92.5t92.5 -224.5t-92.5 -226t-224.5 -94t-226 94t-94 226
t94 224.5t226 92.5zM1278 436q-58 0 -98.5 -40t-40.5 -99q0 -57 40.5 -98t98.5 -41q57 0 98 41t41 98q0 58 -41 98.5t-98 40.5zM1993 436q-59 0 -100.5 -40.5t-41.5 -98.5q0 -57 42 -98t100 -41q57 0 98 41t41 98q0 58 -41 98.5t-98 40.5z" />
    <glyph glyph-name="guilsinglleft" unicode="&#x2039;" horiz-adv-x="827" 
d="M618 903v-131q0 -34 -26 -51l-230 -150l230 -149q26 -14 26 -49v-131q0 -25 -13.5 -32.5t-35.5 5.5l-333 217q-27 15 -27 49v181q0 33 27 51l333 217q20 14 34.5 6t14.5 -33z" />
    <glyph glyph-name="guilsinglright" unicode="&#x203a;" horiz-adv-x="827" 
d="M258 930l334 -217q26 -14 26 -49v-181q0 -34 -26 -51l-334 -217q-20 -14 -34.5 -6t-14.5 33v131q0 33 27 51l229 149l-229 150q-27 15 -27 49v131q0 25 14.5 33t34.5 -6z" />
    <glyph glyph-name="zerosuperior" unicode="&#x2070;" horiz-adv-x="649" 
d="M330 1509q103 0 166 -72t63 -204q0 -135 -65.5 -211t-169.5 -76t-169 74t-65 207t66.5 207.5t173.5 74.5zM319 1372q-35 0 -56 -35t-21 -104q0 -80 26.5 -115t61.5 -35q36 0 57 35t21 107q0 79 -26 113t-63 34z" />
    <glyph glyph-name="foursuperior" unicode="&#x2074;" horiz-adv-x="706" 
d="M614 1106v-35q0 -41 -41 -41h-67v-33q0 -41 -41 -41h-64q-41 0 -41 41v33h-229q-41 0 -41 41v47q0 51 16 72l236 287q19 22 41 22h80q41 0 41 -41l2 -311h67q41 0 41 -41zM362 1147v166h-4l-131 -162v-4h135z" />
    <glyph glyph-name="fivesuperior" unicode="&#x2075;" horiz-adv-x="649" 
d="M385 1329q75 0 124.5 -48t49.5 -130q0 -90 -60 -147.5t-173 -57.5q-92 0 -150 37t-78 94q-6 20 4.5 31.5t32.5 11.5h76q23 0 49 -26q29 -23 74 -23q36 0 54 18t18 46q0 31 -19.5 49t-54.5 18q-36 0 -60 -6q-30 -10 -51 -10h-74q-41 0 -38 43l26 231q3 39 43 39h320
q41 0 41 -41v-43q0 -41 -41 -41h-232l-10 -76h12q51 31 117 31z" />
    <glyph glyph-name="sixsuperior" unicode="&#x2076;" horiz-adv-x="657" 
d="M379 1300q85 0 136.5 -47t51.5 -120q0 -83 -68 -135t-161 -52q-110 0 -182 70.5t-72 204.5q0 129 69.5 208.5t184.5 79.5q75 0 131.5 -34t77.5 -84q9 -20 -2 -32.5t-33 -12.5h-66q-7 0 -12 1t-11 3.5t-8.5 4t-10 6.5t-9.5 7q-18 18 -55 18q-44 0 -70 -31.5t-32 -84.5h8
q66 30 133 30zM350 1069q66 0 66 53q0 25 -17.5 44.5t-58.5 19.5q-51 0 -98 -23q21 -94 108 -94z" />
    <glyph glyph-name="sevensuperior" unicode="&#x2077;" horiz-adv-x="632" 
d="M131 1499h371q41 0 41 -41v-37q0 -15 -19 -53q-107 -196 -182 -379q-11 -33 -47 -33h-96q-23 0 -31.5 14t2.5 36q99 203 192 348v12l-231 -2q-41 0 -41 41v53q0 41 41 41z" />
    <glyph glyph-name="eightsuperior" unicode="&#x2078;" horiz-adv-x="626" 
d="M313 1509q92 0 150.5 -44t58.5 -109q0 -78 -78 -113v-6q41 -13 70 -48.5t29 -84.5q0 -70 -60.5 -114t-167.5 -44q-106 0 -168.5 44t-62.5 114q0 50 30.5 83t71.5 50v8q-80 24 -80 107q0 68 57 112.5t150 44.5zM313 1399q-32 0 -50.5 -13.5t-18.5 -35.5q0 -23 17.5 -36.5
t51.5 -13.5q70 0 70 50q0 23 -19 36t-51 13zM313 1171q-39 0 -60.5 -16t-21.5 -41q0 -27 21 -44t61 -17q41 0 61.5 16.5t20.5 44.5q0 25 -20.5 41t-61.5 16z" />
    <glyph glyph-name="ninesuperior" unicode="&#x2079;" horiz-adv-x="724" 
d="M389 1509q109 0 180.5 -69.5t71.5 -204.5q0 -130 -71 -209.5t-193 -79.5q-80 0 -135 33.5t-80 85.5q-9 20 1 32.5t34 12.5l65 2q20 0 49 -25q24 -18 64 -18q52 0 79.5 33t32.5 84h-8q-60 -31 -135 -31q-86 0 -137 46.5t-51 123.5q0 84 68.5 134t164.5 50zM383 1272
q57 0 98 20q-23 99 -108 99q-30 0 -48 -15t-18 -41q0 -25 17.5 -44t58.5 -19z" />
    <glyph glyph-name="euro" unicode="&#x20ac;" horiz-adv-x="1503" 
d="M999 184q134 0 277 58q42 16 51 -27l27 -115q9 -34 -23 -53q-159 -80 -352 -80q-262 0 -445.5 140t-250.5 378h-152q-41 0 -41 41v109q0 41 41 41h121q-2 20 -2 65q0 49 2 74h-121q-41 0 -41 41v109q0 41 41 41h154q69 245 255.5 387.5t442.5 142.5q185 0 346 -80
q32 -17 23 -53l-35 -127q-12 -40 -53 -25q-163 70 -301 70q-155 0 -270 -81t-167 -234l447 -2q41 0 41 -41v-109q0 -41 -41 -41l-479 2l-2 -49q0 -32 4 -90l477 -2q41 0 41 -41v-107q0 -41 -41 -41h-432q59 -145 177 -223t281 -78z" />
    <glyph glyph-name="ruble" unicode="&#x20bd;" horiz-adv-x="1402" 
d="M190 1499h594q236 0 381.5 -129.5t145.5 -337.5q0 -212 -147 -352.5t-380 -140.5h-387l2 -117h320q41 0 41 -41v-131q0 -41 -41 -41h-320l2 -168q0 -41 -41 -41h-178q-41 0 -41 41l2 168h-112q-41 0 -41 41v131q0 41 41 41h112l7 1036q0 41 40 41zM397 752h369
q148 0 225.5 67t77.5 189q0 127 -84 202.5t-219 75.5h-373z" />
    <glyph glyph-name="numero" unicode="&#x2116;" horiz-adv-x="2336" 
d="M1905 750q-160 0 -272.5 112.5t-112.5 272.5t112.5 272.5t272.5 112.5t272.5 -112.5t112.5 -272.5t-112.5 -272.5t-272.5 -112.5zM1182 1499h155q41 0 41 -41l8 -1417q0 -41 -40 -41h-234q-32 0 -49 29l-674 1181l6 -1169q0 -41 -41 -41h-172q-41 0 -41 41l9 1417
q0 41 40 41h244q32 0 49 -29l652 -1134l6 1122q0 41 41 41zM1905 1317q-77 0 -130 -53t-53 -129q0 -74 53.5 -128.5t129.5 -54.5q73 0 127.5 54.5t54.5 128.5q0 76 -54 129t-128 53zM1556 637h697q41 0 41 -41v-129q0 -41 -41 -41h-697q-40 0 -40 41v129q0 41 40 41z" />
    <glyph glyph-name="trademark" unicode="&#x2122;" horiz-adv-x="1380" 
d="M602 1458v-26q0 -41 -41 -41h-119v-383q0 -41 -41 -41h-39q-40 0 -40 41v383l-117 -2q-41 0 -41 41v28q0 41 41 41h356q41 0 41 -41zM1198 1458l16 -450q3 -41 -38 -41h-33q-40 0 -43 41l-8 303h-9l-75 -310q-9 -34 -45 -34h-43q-37 0 -46 34l-81 310h-11l-8 -303
q0 -41 -41 -41h-33q-41 0 -38 41l16 450q3 41 43 41h90q36 0 45 -35l80 -319h8l84 319q9 35 45 35h82q40 0 43 -41z" />
    <glyph glyph-name="minus" unicode="&#x2212;" horiz-adv-x="1660" 
d="M1518 610v-131q0 -41 -41 -41h-1088q-41 0 -41 41v131q0 41 41 41h1088q41 0 41 -41z" />
    <glyph glyph-name="infinity" unicode="&#x221e;" horiz-adv-x="2203" 
d="M1550 1057q179 0 293.5 -129.5t114.5 -321.5t-118 -317t-316 -125q-123 0 -222 58t-217 196q-105 -125 -208 -189.5t-224 -64.5q-179 0 -293 129t-114 319q0 192 118 318.5t316 126.5q123 0 221.5 -57.5t218.5 -196.5q101 125 204.5 189.5t225.5 64.5zM680 399
q74 0 143 55t144 158q-83 122 -148.5 172t-140.5 50q-87 0 -140 -56t-53 -147q0 -106 53 -169t142 -63zM1524 387q89 0 140.5 55t51.5 148q0 106 -52 168.5t-140 62.5q-75 0 -144 -55t-143 -158q84 -122 148.5 -171.5t138.5 -49.5z" />
    <glyph glyph-name="notequal" unicode="&#x2260;" horiz-adv-x="1576" 
d="M995 653l-125 -266h418q41 0 41 -41v-119q0 -41 -41 -41h-510l-125 -266q-15 -31 -47 -31h-133q-23 0 -32 14t1 36l117 247h-272q-41 0 -41 41v119q0 41 41 41h366l123 266h-489q-41 0 -41 41v121q0 41 41 41h585l123 264q15 31 47 31h132q23 0 31.5 -13.5t-1.5 -35.5
l-114 -246h198q41 0 41 -41v-121q0 -41 -41 -41h-293z" />
    <glyph glyph-name="lessequal" unicode="&#x2264;" horiz-adv-x="1351" 
d="M1106 989v-102q0 -36 -33 -45l-561 -185l559 -178q35 -8 35 -45v-98q0 -48 -47 -35l-780 258q-33 9 -33 45v105q0 36 33 47l780 266q22 8 34.5 -1t12.5 -32zM246 57v97q0 41 41 41h778q41 0 41 -41v-97q0 -41 -41 -41h-778q-41 0 -41 41z" />
    <glyph glyph-name="greaterequal" unicode="&#x2265;" horiz-adv-x="1351" 
d="M293 1022l780 -266q33 -11 33 -47v-105q0 -36 -33 -45l-780 -258q-47 -13 -47 35v98q0 37 35 45l559 178l-561 185q-33 9 -33 45v102q0 23 12.5 32t34.5 1zM246 57v97q0 41 41 41h778q41 0 41 -41v-97q0 -41 -41 -41h-778q-41 0 -41 41z" />
    <glyph glyph-name="lozenge" unicode="&#x25ca;" horiz-adv-x="1265" 
d="M705 0h-144q-32 0 -49 29l-406 676q-14 29 0 57l418 678q14 26 49 26h119q35 0 49 -26l418 -678q14 -28 0 -57l-405 -676q-17 -29 -49 -29zM909 733l-270 430h-12l-271 -430l271 -430h12z" />
    <glyph glyph-name="apple" unicode="&#xf8ff;" horiz-adv-x="1177" 
d="M766 1090q22 6 34 -5.5t9 -33.5q-13 -75 -59 -127q-49 -66 -121 -78q-19 -3 -30.5 7t-10.5 30q5 68 57 131q51 60 121 76zM805 829q111 0 176 -73q26 -30 -8 -60q-86 -76 -86 -186q5 -127 117 -203q31 -22 20 -55q-26 -62 -66 -117q-27 -43 -46.5 -68t-52 -47t-68.5 -22
q-33 0 -85 22.5t-94 22.5q-47 0 -98.5 -22.5t-81.5 -22.5q-51 0 -90.5 36.5t-85.5 102.5q-48 70 -81 167.5t-34 191.5q0 135 74.5 232.5t200.5 100.5q40 1 100.5 -24t79.5 -25q15 0 87 24.5t122 24.5z" />
    <glyph glyph-name="Cacute.loclPLK" horiz-adv-x="1568" 
d="M975 1960l-105 -258q-11 -33 -47 -33h-67q-46 0 -37 45l59 258q9 35 45 35h119q23 0 32 -12.5t1 -34.5zM815 1532q225 0 396.5 -117t244.5 -325q7 -22 -2.5 -35t-32.5 -13l-151 -2q-32 0 -49 29q-70 120 -179 184t-241 64q-99 0 -183.5 -36t-148 -104t-99.5 -173.5
t-36 -237.5q0 -270 137.5 -426t362.5 -156q275 0 395 254q15 31 49 31l152 -2q23 0 32.5 -12.5t1.5 -32.5q-30 -87 -84 -164.5t-133 -144.5t-192 -106.5t-244 -39.5q-213 0 -377.5 99t-254 275.5t-89.5 403.5q0 172 56 319.5t152.5 249.5t230.5 160t286 58z" />
    <glyph glyph-name="Iacute_J.loclNLD" horiz-adv-x="1826" 
d="M1559 1460l6 -764q1 -158 -25 -274t-76 -195.5t-130.5 -128t-180 -71t-233.5 -25.5q-41 0 -41 41v133q0 41 41 41q220 7 305.5 108t87.5 353l4 782q0 41 41 41h160q41 0 41 -41zM514 1458l10 -1417q0 -41 -41 -41h-176q-41 0 -41 41l6 1417q0 41 41 41h160q41 0 41 -41z
" />
    <glyph glyph-name="Nacute.loclPLK" horiz-adv-x="1527" 
d="M954 1972l-104 -258q-11 -33 -47 -33h-68q-46 0 -37 45l60 259q9 34 45 34h119q48 0 32 -47zM1378 1458l8 -1417q0 -41 -40 -41h-234q-32 0 -49 29l-674 1181l6 -1169q0 -41 -41 -41h-172q-41 0 -41 41l9 1417q0 41 40 41h244q32 0 49 -29l652 -1134l6 1122q0 41 41 41
h155q41 0 41 -41z" />
    <glyph glyph-name="Oacute.loclPLK" horiz-adv-x="1634" 
d="M1008 1972l-105 -258q-11 -33 -47 -33h-68q-45 0 -36 45l59 259q9 34 45 34h119q23 0 32 -12.5t1 -34.5zM829 1532q152 0 284 -55t226.5 -153.5t148.5 -240.5t54 -309q0 -229 -96 -414t-264.5 -289t-374.5 -104q-152 0 -284.5 58t-228 160t-150 248.5t-54.5 316.5
q0 226 97 405.5t265.5 278t376.5 98.5zM811 1317q-102 0 -188.5 -36t-151 -104t-101 -173.5t-36.5 -237.5q0 -268 137 -425t352 -157q101 0 188 38.5t151 109.5t101 179t37 241q0 266 -136.5 415.5t-352.5 149.5z" />
    </font>
</defs>
</svg>
